Посмертные записки Пиквикского клуба / Pickwick Papers (Гилберт Уорвик / Warwick Gilbert) [1985 г., мультфильм, приключения, семейный, VHSRip] DUB

Ответить на тему
 
Автор Сообщение

user ®

Стаж: 13 лет

Сообщений: 15041

Пост Пост: #1 от 12-Сен-2013 01:25

[Цитировать]

Посмертные записки Пиквикского клуба
Pickwick Papers
Год выпуска: 1985
Страна: Австралия
Выпущено: Burbank Films Australia
Жанр: мультфильм, приключения, семейный
Продолжительность: 01:15:14
Перевод: Профессиональный (дублированный) | Варус Видео
Русские субтитры: нет-Режиссер: Гилберт Уорвик / Warwick Gilbert-Описание: Мультипликационная версия одного из романов Диккенса воссоздает перед нами атмосферу старой доброй Англии 19-го века.
Это история забавных приключений почтенного доброго джентльмена мистера Пиквика и его друзей, путешествующих по стране в целях "изучения человеческой природы" и постоянно попадающих в смешные и нелепые положения.-Доп. информация:
Оцифровал и сделал VHSRip - bora86bora.
СЭМПЛ
Качество: VHSRip
Формат: AVI
Видео: 688x528 (1.30:1), 25 fps, XviD build 65 ~1845 kbps avg, 0.20 bit/pixel
Аудио: 48 kHz, AC3 Dolby Digital, 1/0 (L,R) ch, ~192.00 kbps - Дубляж | "Варус Видео"
Размер: 1101.76 Mb

Cкриншоты

MediaInfo

Общее
Полное имя : ...\Pickwick Papers.(1985).VHSRip.r.avi
Формат : AVI
Формат/Информация : Audio Video Interleave
Размер файла : 1,08 Гбайт
Продолжительность : 1 ч. 15 м.
Общий поток : 2047 Кбит/сек
Название фильма : Посмертные записки Пиквинского клуба (1985)
Режиссёр : bora86bora
Программа кодирования : VirtualDubMod 1.5.10.3 | www.virtualdub-fr.org || (build 2550/release)
Библиотека кодирования : VirtualDubMod build 2550/release
Правообладатель : RG Multfilmy / r.org
Видео
Идентификатор : 0
Формат : MPEG-4 Visual
Профиль формата : Advanced Simple@L5
Параметр BVOP формата : 1
Параметр QPel формата : Нет
Параметр GMC формата : Без точки перехода
Параметр матрицы формата : Default (H.263)
Идентификатор кодека : XVID
Идентификатор кодека/Подсказка : XviD
Продолжительность : 1 ч. 15 м.
Битрейт : 1845 Кбит/сек
Ширина : 688 пикселей
Высота : 528 пикселей
Соотношение сторон : 4:3
Частота кадров : 25,000 кадров/сек
Цветовое пространство : YUV
Субдискретизация насыщенности : 4:2:0
Битовая глубина : 8 бит
Тип развёртки : Прогрессивная
Метод сжатия : С потерями
Бит/(Пиксели*Кадры) : 0.203
Размер потока : 993 Мбайт (90%)
Библиотека кодирования : XviD 65
Аудио
Идентификатор : 1
Формат : AC-3
Формат/Информация : Audio Coding 3
Расширение режима : CM (complete main)
Параметр Endianness формата : Big
Идентификатор кодека : 2000
Продолжительность : 1 ч. 15 м.
Вид битрейта : Постоянный
Битрейт : 192 Кбит/сек
Каналы : 2 канала
Расположение каналов : Front: L R
Частота : 48,0 КГц
Битовая глубина : 16 бит
Метод сжатия : С потерями
Размер потока : 103 Мбайт (9%)
Выравнивание : Разделение по промежуткам
Продолжительность промежутка : 40 мс. (1,00 видеокадр)
Время предзагрузки промежутка : 500 мс.
Скачать

Скачать торрент! Посмертные записки Пиквикского клуба / Pickwick Papers (Гилберт Уорвик / Warwick Gilbert) [1985 г., мультфильм, приключения, семейный, VHSRip] DUB

Как скачивать? · Что такое торрент? · Рейтинг и ограничения

Сайт не распространяет и не хранит электронные версии произведений, а лишь предоставляет доступ к создаваемому пользователями каталогу ссылок на торрент-файлы, которые содержат только списки хеш-сумм

[Профиль] [ЛС]
Показать сообщения:    
Ответить на тему

Текущее время: Сегодня 10:48

Часовой пояс: GMT + 4



Вы не можете начинать темы
Вы не можете отвечать на сообщения
Вы не можете редактировать свои сообщения
Вы не можете удалять свои сообщения
Вы не можете голосовать в опросах
Вы не можете прикреплять файлы к сообщениям
Вы не можете скачивать файлы