Око небесное / Eye in the Sky / Gun chung (Яу Най Хой / Yau Nai-Hoi) [2007, Гонконг, криминал, триллер, DVDRip] DVO

Ответить на тему
 
Автор Сообщение

user ®

Стаж: 11 лет

Сообщений: 15151

Пост Пост: #1 от 11-Сен-2013 13:10

[Цитировать]

Око небесное / Eye in the Sky / Gun chung
Страна: Гонконг
Жанр: криминал, триллер
Год выпуска: 2007
Продолжительность: 01:29:36-Перевод: Профессиональный (двухголосый закадровый)
Оригинальная аудиодорожка: нет
Субтитры: нет-Режиссер: Яу Най Хой / Yau Nai-Hoi-В ролях: Саймон Ям, Тони Люн Ка Фай, Кейт Цуй, Лам Суэт, Мэгги Сиу-Описание: Молодая девушка приходит на работу в Отдел наблюдений Бюро криминальных расследований в Гонконге.
Это подразделение занимается наружным наблюдением, следя за своими объектами, как «око небесное».
Ее первое дело – слежка за преступником, ограбившим ювелирный магазин.- -Качество видео: DVDRip (DVD9)
Формат видео: AVI
Видео: XviD, 720x400 (1.80:1), 23.976 fps, 2193 kbps avg, 0.32 bit/pixel
Аудио: Русский MPEG layer 3, 2 ch, 128 kbps

Доп. информация:

Рип: Public Enemy (((
Постер: Public Enemy (((

MediaInfo

Format : AVI
Format/Info : Audio Video Interleave
File size : 1.46 GiB
Duration : 1h 29mn
Overall bit rate : 2 331 Kbps
Writing application : VirtualDubMod 1.5.10.2 (build 2540/release)
Writing library : VirtualDubMod build 2540/release
Video
ID : 0
Format : MPEG-4 Visual
Format profile : Advanced Simple@L5
Format settings, BVOP : 1
Format settings, QPel : No
Format settings, GMC : No warppoints
Format settings, Matrix : Custom
Codec ID : XVID
Codec ID/Hint : XviD
Duration : 1h 29mn
Bit rate : 2 194 Kbps
Width : 720 pixels
Height : 400 pixels
Display aspect ratio : 16:9
Frame rate : 23.976 fps
Color space : YUV
Chroma subsampling : 4:2:0
Bit depth : 8 bits
Scan type : Progressive
Compression mode : Lossy
Bits/(Pixel*Frame) : 0.318
Stream size : 1.37 GiB (94%)
Writing library : XviD 73
Audio
ID : 1
Format : MPEG Audio
Format version : Version 1
Format profile : Layer 3
Mode : Joint stereo
Mode extension : MS Stereo
Codec ID : 55
Codec ID/Hint : MP3
Duration : 1h 29mn
Bit rate mode : Constant
Bit rate : 128 Kbps
Channel(s) : 2 channels
Sampling rate : 48.0 KHz
Compression mode : Lossy
Stream size : 82.0 MiB (5%)
Alignment : Aligned on interleaves
Interleave, duration : 42 ms (1.00 video frame)
Interleave, preload duration : 504 ms

Скриншот с названием

Скриншоты

Скачать

Скачать торрент! Око небесное / Eye in the Sky / Gun chung (Яу Най Хой / Yau Nai-Hoi) [2007, Гонконг, криминал, триллер, DVDRip] DVO

Как скачивать? · Что такое торрент? · Рейтинг и ограничения

Сайт не распространяет и не хранит электронные версии произведений, а лишь предоставляет доступ к создаваемому пользователями каталогу ссылок на торрент-файлы, которые содержат только списки хеш-сумм

[Профиль] [ЛС]
Показать сообщения:    
Ответить на тему

Текущее время: Сегодня 22:35

Часовой пояс: GMT + 4



Вы не можете начинать темы
Вы не можете отвечать на сообщения
Вы не можете редактировать свои сообщения
Вы не можете удалять свои сообщения
Вы не можете голосовать в опросах
Вы не можете прикреплять файлы к сообщениям
Вы не можете скачивать файлы