Кровью и потом: Анаболики / Pain & Gain (Майкл Бэй / Michael Bay) [2013 г., США, криминал, комедия, триллер, BDRip] Dub

Ответить на тему
 
Автор Сообщение

user ®

Стаж: 7 лет 7 месяцев

Сообщений: 20008

Пост Пост: #1 от 11-Сен-2013 13:10

[Цитировать]

Кровью и потом: АнаболикиPain & Gain-«Мечтай по-крупному»- -Год выпуска: 2013
Страна: США-Жанр: криминал, комедия, триллер, боевик
Продолжительность: 02:09:36
Перевод: Профессиональный (полное дублирование)
Субтитры: нет-Режиссер: Майкл Бэй / Michael Bay
Сценарий: Кристофер Маркус / Christopher Markus, Стивен МакФили / Stephen McFeely, Пит Коллинз / Pete Collins
Продюсер: Майкл Бэй / Michael Bay, Йен Брайс / Ian Bryce, Дональд Де Лайн / Donald De Line, Мэттью Кохан / Matthew Cohan, Скотт Гарденауа / Scott Gardenhour
Оператор: Бен Сересин / Ben Seresin
Композитор: Стив Яблонски / Steve Jablonsky-В ролях: Марк Уолберг (Daniel Lugo), Дуэйн Джонсон (Paul Doyle), Энтони Маки (Adrian Doorbal), Тони Шэлуб (Victor Kershaw), Эд Харрис (Ed DuBois), Роб Кордри (John Mese), Ребел Уилсон (Robin Peck), Бар Пали (Sorina Luminita), Кен Жонг (Johnny Wu), Майкл Рисполи (Frank Griga), Кейли Лефковитц (Krisztina Furton), Иоланта Кабау ван Касберген (Analee Calvera)
Дублёры: Денис Беспалый (Daniel Lugo), Александр Гаврилин (Paul Doyle), Андрей Казанцев (Victor Kershaw), Александр Груздев (Ed DuBois), Диомид Виноградов (Johnny Wu)-Описание: Однажды тренеру по фитнесу надоело ходить в трениках. Он решил круто изменить свою судьбу и разбогатеть. Нашел двух других незадачливых качков и предложил им план похищения своего клиента-миллионера. Но если в организме мышц больше, чем мозгов, то даже самый лучший план, подсмотренный в экшен-боевике, может не сработать...-kinopoisk.ru: 6.630 (21 206)
imdb.com: 6.60 (53 883)
MPAA: R - Лицам до 17 лет обязательно присутствие взрослого--Качество: BDRip / [url=http://***/forum/viewtopic.php?t=4529560]BDRemux[/url]
Контейнер: AVI
Видео: 656x272 (2.41:1), 23.976 fps, XviD build 65 ~703 kbps avg, 0.16 bit/pixel
Аудио: 32 kHz, MPEG Layer 3, 2 ch, ~96.00 kbps avg-

Сэмпл

Скачать

-

MediaInfo

General
Complete name                            : E:\Полуфабрикаты\Рипы\Pain.Gain.2013.BDRip.Dub.All.Films.avi
Format                                   : AVI
Format/Info                              : Audio Video Interleave
File size                                : 750 MiB
Duration                                 : 2h 9mn
Overall bit rate                         : 809 Kbps
Movie name                               : Pain.Gain.2013.BDRip.Dub.All.Films
Director                                 : DIABLO93
Genre                                    : Action/Comedy
Writing application                      : VirtualDubMod 1.5.10.3 | www.virtualdub-fr.org || (build 2550/release)
Original source form/Name                : Movie
Copyright                                : *** (R.G. All Films)
Video
ID                                       : 0
Format                                   : MPEG-4 Visual
Format profile                           : Advanced Simple@L5
Format settings, BVOP                    : 2
Format settings, QPel                    : No
Format settings, GMC                     : No warppoints
Format settings, Matrix                  : Custom
Codec ID                                 : XVID
Codec ID/Hint                            : XviD
Duration                                 : 2h 9mn
Bit rate                                 : 704 Kbps
Width                                    : 656 pixels
Height                                   : 272 pixels
Display aspect ratio                     : 2.40:1
Frame rate                               : 23.976 fps
Color space                              : YUV
Chroma subsampling                       : 4:2:0
Bit depth                                : 8 bits
Scan type                                : Progressive
Compression mode                         : Lossy
Bits/(Pixel*Frame)                       : 0.165
Stream size                              : 652 MiB (87%)
Writing library                          : XviD 65
Audio
ID                                       : 1
Format                                   : MPEG Audio
Format version                           : Version 1
Format profile                           : Layer 3
Mode                                     : Joint stereo
Mode extension                           : Intensity Stereo
Codec ID                                 : 55
Codec ID/Hint                            : MP3
Duration                                 : 2h 9mn
Bit rate mode                            : Constant
Bit rate                                 : 96.0 Kbps
Channel(s)                               : 2 channels
Sampling rate                            : 32.0 KHz
Compression mode                         : Lossy
Stream size                              : 89.0 MiB (12%)
Alignment                                : Aligned on interleaves
Interleave, duration                     : 42 ms (1.00 video frame)
Interleave, preload duration             : 504 ms

-

Скриншоты

Релиз группы:
[url=http://***/forum/viewtopic.php?t=1677970] [/url]
-
Скачать

Скачать торрент!

Как скачивать? · Что такое торрент? · Рейтинг и ограничения

Сайт не распространяет и не хранит электронные версии произведений, а лишь предоставляет доступ к создаваемому пользователями каталогу ссылок на торрент-файлы, которые содержат только списки хеш-сумм

[Профиль] [ЛС]
Показать сообщения:    
Ответить на тему

Текущее время: Сегодня 14:31

Часовой пояс: GMT + 4



Вы не можете начинать темы
Вы не можете отвечать на сообщения
Вы не можете редактировать свои сообщения
Вы не можете удалять свои сообщения
Вы не можете голосовать в опросах
Вы не можете прикреплять файлы к сообщениям
Вы не можете скачивать файлы