Дневной свет / Daglicht (Дидерик Ван Ружен / Diederik Van Rooijen) [2013, Нидерланды, триллер, BDRip] VO (Вадим Белов)

Ответить на тему
 
Автор Сообщение

user ®

Стаж: 7 лет 7 месяцев

Сообщений: 20008

Пост Пост: #1 от 11-Сен-2013 10:00

[Цитировать]

Дневной свет / Daglicht Страна: Нидерланды
Жанр: триллер
Год выпуска: 2013
Продолжительность: 01:54:55
Перевод: Одноголосый закадровый [Вадим Белов]
Cубтитры: нет
Оригинальная аудиодорожка: нет
Режиссер: Дидерик Ван Ружен / Diederik Van Rooijen
В ролях: Дерек де Линт, Федя ван Хюэт, Моник ван де Вен, Анжела Схяйф, Виктор Лёв, Тийс Ромер, Маттео ван дер Грийн, Йап Спийкерс, Майк Реус, Сабина Соэтанто
Описание: Успешный адвокат Ирис узнает, что её мать всю жизнь скрывала от неё один большой секрет. Оказывается, у неё есть старший брат, о существовании которого она даже не подозревала. Рэй, страдающий аутизмом, много лет назад был осужден за жестокое убийство, и теперь находится в судебно-психиатрической клинике. Проникнувшись сочувствием к своему брату, Ирис решает ему помочь, но в поисках истины ей придется столкнуться с такими препятствиями, которые изменят её жизнь навсегда.
-Качество видео: BDRip [Рип с BluRay 1080p]
Формат видео: AVI
Видео: 704x288 (2.44:1), 23.976 fps, XviD build 73 ~1421 kbps avg, 0.29 bit/pixel
Аудио: 48 kHz, AC3 Dolby Digital, 3/2 (L,C,R,l,r) + LFE ch, ~384 kbps

MediaInfo

Complete name : Daglicht.2013.XviD.BDRip-ed_rez.avi
Format : AVI
Format/Info : Audio Video Interleave
File size : 1.46 GiB
Duration : 1h 54mn
Overall bit rate : 1 815 Kbps
Movie name : Daglicht (2013)
Writing application : VirtualDubMod 1.5.10.3 (build 2550/release)
Copyright : ed_rez
Video
ID : 0
Format : MPEG-4 Visual
Format profile : Advanced Simple@L5
Format settings, BVOP : 1
Format settings, QPel : No
Format settings, GMC : No warppoints
Format settings, Matrix : Custom
Codec ID : XVID
Codec ID/Hint : XviD
Duration : 1h 54mn
Bit rate : 1 422 Kbps
Width : 704 pixels
Height : 288 pixels
Display aspect ratio : 2.40:1
Frame rate : 23.976 fps
Color space : YUV
Chroma subsampling : 4:2:0
Bit depth : 8 bits
Scan type : Progressive
Compression mode : Lossy
Bits/(Pixel*Frame) : 0.292
Stream size : 1.14 GiB (78%)
Writing library : XviD 73
Audio
ID : 1
Format : AC-3
Format/Info : Audio Coding 3
Mode extension : CM (complete main)
Format settings, Endianness : Big
Codec ID : 2000
Duration : 1h 54mn
Bit rate mode : Constant
Bit rate : 384 Kbps
Channel count : 6 channels
Channel positions : Front: L C R, Side: L R, LFE
Sampling rate : 48.0 KHz
Bit depth : 16 bits
Compression mode : Lossy
Stream size : 316 MiB (21%)
Alignment : Split accross interleaves
Interleave, duration : 42 ms (1.00 video frame)
Interleave, preload duration : 500 ms

Скриншоты

Скачать

Скачать торрент!

Как скачивать? · Что такое торрент? · Рейтинг и ограничения

Сайт не распространяет и не хранит электронные версии произведений, а лишь предоставляет доступ к создаваемому пользователями каталогу ссылок на торрент-файлы, которые содержат только списки хеш-сумм

[Профиль] [ЛС]
Показать сообщения:    
Ответить на тему

Текущее время: Сегодня 02:21

Часовой пояс: GMT + 4



Вы не можете начинать темы
Вы не можете отвечать на сообщения
Вы не можете редактировать свои сообщения
Вы не можете удалять свои сообщения
Вы не можете голосовать в опросах
Вы не можете прикреплять файлы к сообщениям
Вы не можете скачивать файлы