Клик: С пультом по жизни / Click (Фрэнк Корачи / Frank Coraci) [2006 г., фэнтези, драма, мелодрама, комедия, BDRemux 1080p] Dub + MVO + Original + Subs

Ответить на тему
 
Автор Сообщение

user ®

Стаж: 7 лет 7 месяцев

Сообщений: 20008

Пост Пост: #1 от 11-Сен-2013 06:50

[Цитировать]

Клик: С пультом по жизни / Click«Представьте, что у вас появился уникальный пульт... Которым можно изменить всю вашу жизнь?»- Год выпуска: 2006
Страна: США
Жанр: фэнтези, драма, мелодрама, комедия
Продолжительность: 01:47:32
Перевод:
- Профессиональный (Полное дублирование)
- Профессиональный (Многоголосый закадровый)
Оригинальная аудиодорожка: английская-Режиссер: Фрэнк Корачи / Frank Coraci
Продюсер: Джек Джиррапуто, Стив Корен, Нил Х. Мориц
Сценарий: Стив Корен, Марк О’Кифи- -Премьера (мир): 22 июня 2006
Премьера (РФ): 3 августа 2006-В ролях: Адам Сэндлер, Кейт Бекинсейл, Кристофер Уокен, Дэвид Хасселхофф, Генри Уинклер, Джули Кавнер, Дженнифер Кулидж, Шон Эстин, Рэйчел Дрэч, Камерон Монахэн-Описание:
Архитектору-трудоголику попадает в руки пульт дистанционного управления, с помощью которого можно прокручивать жизненные ситуации вперед или назад. Но техника есть техника — у нее всегда сюрприз в запасе.
Накопив собственную память, пульт сам начинает управлять скоростью перемотки и выбором момента жизни. Только теперь герой понимает, как неверно он использовал время…-Качество: BDRemux 1080p SAMPLE
Исходник: US BluRay
Формат: MKV
Видео: MPEG2 1920x1080 23.976fps ~35715Kbps
Аудио #1: 48 kHz, AC3, 5.1, ~640.00 kbps avg |Дубляж, BluRay CEE|
Аудио #2: 48 kHz, AC3, 5.1, ~448.00 kbps avg |Профессиональный, многоголосый, Superbit|
Аудио #3: 48 kHz, DTS-HD MA, 5.1, ~2187 Kbps (DTS Core: 5.1 / 1509 kbps / 48 kHz) avg |Оригинал|
Аудио #4: 48 kHz, AC3, 2.0, ~192.00 kbps avg |Комментарии|
Субтитры: русские (надписи, BluRay CEE), русские (полные, по дубляжу), английские (полные, BluRay US)
Главы: 16 шт. (подписанные)
-

MediaInfo

Общее
Уникальный идентификатор                 : 214403391551285716046288663640812402056 (0xA14C9758AA672837B7A334495AA9B588)
Полное имя                               : D:\Видео\HD\Клик - С пультом по жизни [BDRemux 1080p].mkv
Формат                                   : Matroska
Версия формата                           : Version 4 / Version 2
Размер файла                             : 29,4 Гбайт
Продолжительность                        : 1 ч. 47 м.
Режим общего битрейта                    : Переменный
Общий поток                              : 39,2 Мбит/сек
Название фильма                          : Release by spartanec163
Дата кодирования                         : UTC 2013-09-07 12:06:47
Программа кодирования                    : mkvmerge v6.3.0 ('You can't stop me!') built on Jun 28 2013 20:09:41
Библиотека кодирования                   : libebml v1.3.0 + libmatroska v1.4.0
Видео
Идентификатор                            : 1
Формат                                   : MPEG Video
Версия формата                           : Version 2
Профиль формата                          : Main@High
Параметр BVOP формата                    : Нет
Параметр матрицы формата                 : Выборочная
Идентификатор кодека                     : V_MPEG2
Идентификатор кодека/Информация          : MPEG 1 or 2 Video
Продолжительность                        : 1 ч. 47 м.
Вид битрейта                             : Переменный
Максимальный битрейт                     : 40,0 Мбит/сек
Ширина                                   : 1920 пикселей
Высота                                   : 1080 пикселей
Соотношение сторон                       : 16:9
Режим частоты кадров                     : Постоянный
Частота кадров                           : 23,976 кадра/сек
Цветовое пространство                    : YUV
Субдискретизация насыщенности            : 4:2:0
Битовая глубина                          : 8 бит
Метод сжатия                             : С потерями
TimeCode_FirstFrame                      : 00:00:00:00
TimeCode_Source                          : Group of pictures header
Заголовок                                : BDRemux (US)
Язык                                     : English
Default                                  : Да
Forced                                   : Нет
Аудио #1
Идентификатор                            : 2
Формат                                   : AC-3
Формат/Информация                        : Audio Coding 3
Расширение режима                        : CM (complete main)
Параметр Endianness формата              : Big
Идентификатор кодека                     : A_AC3
Продолжительность                        : 1 ч. 47 м.
Вид битрейта                             : Постоянный
Битрейт                                  : 640 Кбит/сек
Каналы                                   : 6 каналов
Расположение каналов                     : Front: L C R, Side: L R, LFE
Частота                                  : 48,0 КГц
Битовая глубина                          : 16 бит
Метод сжатия                             : С потерями
Размер потока                            : 492 Мбайт (2%)
Заголовок                                : AC3 5.1 640Kbps (Дубляж, BluRay CEE)
Язык                                     : Russian
Default                                  : Да
Forced                                   : Нет
Аудио #2
Идентификатор                            : 3
Формат                                   : AC-3
Формат/Информация                        : Audio Coding 3
Расширение режима                        : CM (complete main)
Параметр Endianness формата              : Big
Идентификатор кодека                     : A_AC3
Продолжительность                        : 1 ч. 47 м.
Вид битрейта                             : Постоянный
Битрейт                                  : 448 Кбит/сек
Каналы                                   : 6 каналов
Расположение каналов                     : Front: L C R, Side: L R, LFE
Частота                                  : 48,0 КГц
Битовая глубина                          : 16 бит
Метод сжатия                             : С потерями
Размер потока                            : 345 Мбайт (1%)
Заголовок                                : AC3 5.1 448Kbps (Профессиональный, многоголосый, Superbit)
Язык                                     : Russian
Default                                  : Нет
Forced                                   : Нет
Аудио #3
Идентификатор                            : 4
Формат                                   : DTS
Формат/Информация                        : Digital Theater Systems
Профиль формата                          : MA / Core
Режим                                    : 16
Параметр Endianness формата              : Big
Идентификатор кодека                     : A_DTS
Продолжительность                        : 1 ч. 47 м.
Вид битрейта                             : Переменный
Битрейт                                  : Неизвестно / 1509 Кбит/сек
Каналы                                   : 6 каналов
Расположение каналов                     : Front: L C R, Side: L R, LFE
Частота                                  : 48,0 КГц
Битовая глубина                          : 16 бит
Метод сжатия                             : Без потерь / Lossy
Заголовок                                : DTS-HD 5.1 2187Kbps (Оригинал)
Язык                                     : English
Default                                  : Нет
Forced                                   : Нет
Аудио #4
Идентификатор                            : 5
Формат                                   : AC-3
Формат/Информация                        : Audio Coding 3
Профиль формата                          : Dolby Digital
Расширение режима                        : CM (complete main)
Параметр Endianness формата              : Big
Идентификатор кодека                     : A_AC3
Продолжительность                        : 1 ч. 47 м.
Вид битрейта                             : Постоянный
Битрейт                                  : 192 Кбит/сек
Каналы                                   : 2 канала
Расположение каналов                     : Front: L R
Частота                                  : 48,0 КГц
Битовая глубина                          : 16 бит
Метод сжатия                             : С потерями
Размер потока                            : 148 Мбайт (0%)
Заголовок                                : AC3 2.0 192Kbps (Комментарии)
Язык                                     : English
Default                                  : Нет
Forced                                   : Нет
Текст #1
Идентификатор                            : 6
Формат                                   : UTF-8
Идентификатор кодека                     : S_TEXT/UTF8
Идентификатор кодека/Информация          : UTF-8 Plain Text
Заголовок                                : Надписи
Язык                                     : Russian
Default                                  : Да
Forced                                   : Нет
Текст #2
Идентификатор                            : 7
Формат                                   : UTF-8
Идентификатор кодека                     : S_TEXT/UTF8
Идентификатор кодека/Информация          : UTF-8 Plain Text
Заголовок                                : Полные (по дубляжу)
Язык                                     : Russian
Default                                  : Нет
Forced                                   : Нет
Текст #3
Идентификатор                            : 8
Формат                                   : UTF-8
Идентификатор кодека                     : S_TEXT/UTF8
Идентификатор кодека/Информация          : UTF-8 Plain Text
Заголовок                                : Полные
Язык                                     : English
Default                                  : Нет
Forced                                   : Нет
Меню
00:00:00.000                             : en:Title
00:07:33.203                             : en:Swim Meet
00:11:46.289                             : en:Exploding Stress
00:18:26.314                             : en:Give Me Some Time
00:22:08.536                             : en:Enough Juice
00:31:15.874                             : en:Powerful Device
00:37:47.474                             : en:Fast Forward
00:42:38.806                             : en:Mute
00:49:20.749                             : en:New Bikes
00:54:21.550                             : en:Be Careful
00:59:31.401                             : en:New Assistant
01:06:17.223                             : en:Making Partner
01:14:12.657                             : en:Heart Attach
01:19:39.024                             : en:Dads Grave
01:29:18.853                             : en:His Last Day
01:35:02.614                             : en:Its All A Dream

-

Скриншоты

-
Скачать

Скачать торрент!

Как скачивать? · Что такое торрент? · Рейтинг и ограничения

Сайт не распространяет и не хранит электронные версии произведений, а лишь предоставляет доступ к создаваемому пользователями каталогу ссылок на торрент-файлы, которые содержат только списки хеш-сумм

[Профиль] [ЛС]
Показать сообщения:    
Ответить на тему

Текущее время: Сегодня 08:58

Часовой пояс: GMT + 4



Вы не можете начинать темы
Вы не можете отвечать на сообщения
Вы не можете редактировать свои сообщения
Вы не можете удалять свои сообщения
Вы не можете голосовать в опросах
Вы не можете прикреплять файлы к сообщениям
Вы не можете скачивать файлы