В упор / At Close Range (Джеймс Фоули / James Foley) [1986, США, криминал, драма, HDTV 1080i] DVO (НТВ+) + MVO + AVO (Юрий Сербин) + Sub Eng + Original Eng

Ответить на тему
 
Автор Сообщение

user ®

Стаж: 7 лет 7 месяцев

Сообщений: 20008

Пост Пост: #1 от 11-Сен-2013 06:50

[Цитировать]

В упор / At Close Range
Страна: США
Студия: Hemdale Film
Жанр: криминал, драма
Год выпуска: 1986
Продолжительность: 01:50:53
Перевод 1: Профессиональный (двухголосый закадровый) НТВ+
Перевод 2: Профессиональный (многоголосый закадровый)
Перевод 3: Авторский (одноголосый закадровый) Юрий Сербин
Cубтитры: английские
Оригинальная аудиодорожка: английский
Режиссер: Джеймс Фоули / James Foley
В ролях: Шон Пенн /Sean Penn/, Кристофер Уокен /Christopher Walken/, Мэри Стюарт Мастерсон /Mary Stuart Masterson/, Крис Пенн /Chris Penn/, Милли Перкинс /Millie Perkins/, Айлин Райан /Eileen Ryan/, Трейси Уолтер /Tracey Walter/, Р.Д. Колл /R.D. Call/, Дэвид Стрэтэйрн /David Strathairn/, Дж. К. Куин /J.C. Quinn/, Кэнди Кларк /Candy Clark/, Джейк Денджел /Jake Dengel/, Кифер Сазерленд /Kiefer Sutherland/, Стивен Джеффрис /Stephen Geoffreys/, Криспин Гловер /Crispin Glover/, Ноэль Паркер /Noelle Parker/, Алан Аутри /Alan Autry/, Пол Херман /Paul Herman/, Gary Gober, Marshall Fallwell Jr.
Описание: Отец-преступник вовлекает своего сына в безумную вакханалию жестоких преступлений и убийств. За ними охотятся полиция и ФБР.
Весь мир против них, и вскоре они сами становятся смертельными врагами. Кто из них останется в живых? Будет ли ему нужна эта жизнь?

Доп. информация:
За многоголоску и оригинальную дорогу спасибо dooctoor
За дорогу с Юрием Сербиным спасибо ShevChenCo
Субтитры найдены в сети
Тип релиза: HDTV 1080i
Контейнер: MKV
Видео: AVC 1920x1080 (16:9) 25.0fps Bit rate 5191Kbps
Аудио 1: MP2 48.0KHz 2ch 192 Kbps rus
Аудио 2: AC3 48.0KHz 2ch 192 Kbps rus
Аудио 3: AC3 48.0KHz 2ch 192 Kbps rus
Аудио 4: AC3 48.0KHz 2ch 192 Kbps eng

MediaInfo

General
Complete name : E:\torrent\V upor_HDTV 1080i.mkv
Format : Matroska
File size : 4.71 GiB
Duration : 1h 50mn
Overall bit rate : 6 080 Kbps
Encoded date : UTC 2013-09-09 03:58:10
Writing application : mkvmerge v5.7.0 ('The Whirlwind') built on Jul 8 2012 20:08:51
Writing library : libebml v1.2.3 + libmatroska v1.3.0
Video
ID : 1
Format : AVC
Format/Info : Advanced Video Codec
Format profile : High@L4.0
Format settings, CABAC : Yes
Format settings, ReFrames : 3 frames
Format settings, GOP : M=1, N=64
Muxing mode : Container profile=Unknown@4.0
Codec ID : V_MPEG4/ISO/AVC
Duration : 1h 50mn
Bit rate : 5 191 Kbps
Width : 1 920 pixels
Height : 1 080 pixels
Display aspect ratio : 16:9
Frame rate : 50.000 fps
Original frame rate : 25.000 fps
Standard : Component
Color space : YUV
Chroma subsampling : 4:2:0
Bit depth : 8 bits
Scan type : Interlaced
Scan order : Top Field First
Bits/(Pixel*Frame) : 0.050
Stream size : 4.02 GiB (85%)
Title : V upor_HDTV1080i
Color primaries : BT.709-5, BT.1361, IEC 61966-2-4, SMPTE RP177
Transfer characteristics : BT.709-5, BT.1361
Matrix coefficients : BT.709-5, BT.1361, IEC 61966-2-4 709, SMPTE RP177
Audio #1
ID : 2
Format : MPEG Audio
Format version : Version 1
Format profile : Layer 2
Codec ID : A_MPEG/L2
Codec ID/Hint : MP2
Duration : 1h 50mn
Bit rate mode : Constant
Bit rate : 192 Kbps
Channel(s) : 2 channels
Sampling rate : 48.0 KHz
Stream size : 152 MiB (3%)
Title : V upor_MP2_DVO_NTV+
Language : Russian
Audio #2
ID : 3
Format : AC-3
Format/Info : Audio Coding 3
Mode extension : CM (complete main)
Codec ID : A_AC3
Duration : 1h 50mn
Bit rate mode : Constant
Bit rate : 192 Kbps
Channel(s) : 2 channels
Channel positions : Front: L R
Sampling rate : 48.0 KHz
Bit depth : 16 bits
Stream size : 152 MiB (3%)
Title : V upor_AC3_MVO
Language : Russian
Audio #3
ID : 4
Format : AC-3
Format/Info : Audio Coding 3
Mode extension : CM (complete main)
Codec ID : A_AC3
Duration : 1h 50mn
Bit rate mode : Constant
Bit rate : 192 Kbps
Channel(s) : 2 channels
Channel positions : Front: L R
Sampling rate : 48.0 KHz
Bit depth : 16 bits
Stream size : 152 MiB (3%)
Title : V upor_AC3_VO_Serbin
Language : Russian
Audio #4
ID : 5
Format : AC-3
Format/Info : Audio Coding 3
Mode extension : CM (complete main)
Codec ID : A_AC3
Duration : 1h 50mn
Bit rate mode : Constant
Bit rate : 192 Kbps
Channel(s) : 2 channels
Channel positions : Front: L R
Sampling rate : 48.0 KHz
Bit depth : 16 bits
Stream size : 152 MiB (3%)
Title : V upor_AC3_original eng
Text
ID : 6
Format : UTF-8
Codec ID : S_TEXT/UTF8
Codec ID/Info : UTF-8 Plain Text
Title : V upor_subtitle original eng

Скриншот с названием фильма

Скриншоты


Сравнение с DVD


Скачать

Скачать торрент!

Как скачивать? · Что такое торрент? · Рейтинг и ограничения

Сайт не распространяет и не хранит электронные версии произведений, а лишь предоставляет доступ к создаваемому пользователями каталогу ссылок на торрент-файлы, которые содержат только списки хеш-сумм

[Профиль] [ЛС]
Показать сообщения:    
Ответить на тему

Текущее время: Сегодня 17:42

Часовой пояс: GMT + 4



Вы не можете начинать темы
Вы не можете отвечать на сообщения
Вы не можете редактировать свои сообщения
Вы не можете удалять свои сообщения
Вы не можете голосовать в опросах
Вы не можете прикреплять файлы к сообщениям
Вы не можете скачивать файлы