Вспомнить всё / Total Recall (Лен Уайзман / Len Wiseman) [2012, США / Канада, фантастика, боевик, триллер, приключения, BDRip 1080p] [4K Remastered] Dub + Original (Eng) + Subs (Rus, Eng)

Ответить на тему
 
Автор Сообщение

user ®

Стаж: 7 лет 7 месяцев

Сообщений: 20008

Пост Пост: #1 от 11-Сен-2013 06:50

[Цитировать]

Вспомнить всё / Total Recall

-
-Страна: США, Канада
Студия: Original Film, Rekall Productions, Total Recall
Жанр: фантастика, боевик, триллер, приключения
Год выпуска: 2012
Продолжительность: 01:58:18--Перевод: Профессиональный (дублированный) Blu-ray
Cубтитры: русские (full, commentary), английские (full, SDH)
Оригинальная аудиодорожка: английский--Режиссер: Лен Уайзман / Len Wiseman
В ролях: Колин Фаррелл, Кейт Бекинсейл, Джессика Бил, Брайан Крэнстон, Джон Чо, Билл Найи, Букем Вудбайн, Уилл Юн Ли, Милтон Барнс, Джеймс Макгоун--Описание: Он — обычный рабочий-строитель, живущий в маленькой квартирке в захудалом районе города будущего где-то в Новой Азии. Хотя собственная жизнь его в целом устраивает, он не может избавиться от чувства, что ему хочется чего-то большего. Потребность в новых будоражащих впечатлениях приводит его в офис компании «Вспомнить всё», имплантирующей в память своих клиентов воспоминания-фантазии, которые они могут получить не рискуя при этом пережить сами события в реальности. Пока герой выбирает, какие именно воспоминания ему приобрести, отряд спецназа штурмует комнату, где он находится, и уже было берет его под арест. К своему собственному удивлению, он молниеносно уничтожает весь отряд при помощи невероятных бойцовских навыков, о владении которыми он и не подозревал…--imdb | kinopoisk | Сэмпл--Тип релиза: BDRip 1080p [Total Recall 2012 1080p BluRay DD5.1 x264-DON]
Контейнер: MKV
Видео: MPEG-4 AVC / 10000 kbps / 1920x802 / 23,976 fps / 2,40:1 / High Profile 4.1
Аудио 1: AC3 / 5.1 / 48 kHz / 640 kbps / 16 bits |Dub, Blu-ray|
Аудио 2: AC3 / 5.1 / 48 kHz / 640 kbps / 16 bits |Dub, Blu-ray, Ukrainian|
Аудио 3: AC3 / 5.1 / 48 kHz / 640 kbps / 16 bits |original|
Аудио 4: AC3 / 2.0 / 48 kHz / 192 kbps / 16 bits |Commentary|
Формат субтитров: softsub [SRT]

MediaInfo

Общее
Уникальный идентификатор : 239790480244961607657491925661581619678 (0xB465F774F3640637874BA11E607CB1DE)
Полное имя : G:\HD\Вспомнить всё.2012.BDRip.(1080p).mkv
Формат : Matroska
Версия формата : Version 2
Размер файла : 10,0 Гбайт
Продолжительность : 1 ч. 58 м.
Общий поток : 12,1 Мбит/сек
Дата кодирования : UTC 2013-09-10 17:50:48
Программа кодирования : mkvmerge v5.8.0 ('No Sleep / Pillow') built on Sep 2 2012 15:37:04
Библиотека кодирования : libebml v1.2.3 + libmatroska v1.3.0
Attachment : Yes
Видео
Идентификатор : 1
Формат : AVC
Формат/Информация : Advanced Video Codec
Профиль формата : High@L4.1
Параметр CABAC формата : Да
Параметр ReFrames формата : 5 кадров
Идентификатор кодека : V_MPEG4/ISO/AVC
Продолжительность : 1 ч. 58 м.
Битрейт : 10000 Кбит/сек
Ширина : 1920 пикселей
Высота : 802 пикселя
Соотношение сторон : 2,40:1
Режим частоты кадров : Постоянный
Частота кадров : 23,976 кадра/сек
Цветовое пространство : YUV
Субдискретизация насыщенности : 4:2:0
Битовая глубина : 8 бит
Тип развёртки : Прогрессивная
Бит/(Пиксели*Кадры) : 0.271
Размер потока : 8,07 Гбайт (81%)
Заголовок : Total Recall 2012 1080p Bluray DD5.1 x264-DON
Библиотека кодирования : x264 core 116 r2057 0ba8a9c
Настройки программы : cabac=1 / ref=5 / deblock=1:-3:-3 / analyse=0x3:0x133 / me=umh / subme=10 / psy=1 / psy_rd=1.00:0.00 / mixed_ref=1 / me_range=32 / chroma_me=1 / trellis=2 / 8x8dct=1 / cqm=0 / deadzone=21,11 / fast_pskip=0 / chroma_qp_offset=-2 / threads=14 / sliced_threads=0 / nr=0 / decimate=0 / interlaced=0 / bluray_compat=0 / constrained_intra=0 / bframes=7 / b_pyramid=2 / b_adapt=2 / b_bias=0 / direct=3 / weightb=1 / open_gop=0 / weightp=2 / keyint=250 / keyint_min=23 / scenecut=40 / intra_refresh=0 / rc_lookahead=40 / rc=2pass / mbtree=0 / bitrate=10000 / ratetol=1.0 / qcomp=0.65 / qpmin=0 / qpmax=40 / qpstep=4 / cplxblur=20.0 / qblur=0.5 / vbv_maxrate=50000 / vbv_bufsize=50000 / nal_hrd=none / ip_ratio=1.25 / pb_ratio=1.25 / aq=1:0.65
Язык : English
Default : Да
Forced : Нет
Аудио #1
Идентификатор : 2
Формат : AC-3
Формат/Информация : Audio Coding 3
Расширение режима : CM (complete main)
Параметр Endianness формата : Big
Идентификатор кодека : A_AC3
Продолжительность : 1 ч. 58 м.
Вид битрейта : Постоянный
Битрейт : 640 Кбит/сек
Каналы : 6 каналов
Расположение каналов : Front: L C R, Side: L R, LFE
Частота : 48,0 КГц
Битовая глубина : 16 бит
Метод сжатия : С потерями
Размер потока : 542 Мбайт (5%)
Заголовок : Dub, Blu-ray
Язык : Russian
Default : Да
Forced : Нет
Аудио #2
Идентификатор : 3
Формат : AC-3
Формат/Информация : Audio Coding 3
Расширение режима : CM (complete main)
Параметр Endianness формата : Big
Идентификатор кодека : A_AC3
Продолжительность : 1 ч. 58 м.
Вид битрейта : Постоянный
Битрейт : 640 Кбит/сек
Каналы : 6 каналов
Расположение каналов : Front: L C R, Side: L R, LFE
Частота : 48,0 КГц
Битовая глубина : 16 бит
Метод сжатия : С потерями
Размер потока : 542 Мбайт (5%)
Заголовок : Dub, Blu-ray
Язык : Ukrainian
Default : Нет
Forced : Нет
Аудио #3
Идентификатор : 4
Формат : AC-3
Формат/Информация : Audio Coding 3
Расширение режима : CM (complete main)
Параметр Endianness формата : Big
Идентификатор кодека : A_AC3
Продолжительность : 1 ч. 58 м.
Вид битрейта : Постоянный
Битрейт : 640 Кбит/сек
Каналы : 6 каналов
Расположение каналов : Front: L C R, Side: L R, LFE
Частота : 48,0 КГц
Битовая глубина : 16 бит
Метод сжатия : С потерями
Размер потока : 542 Мбайт (5%)
Язык : English
Default : Нет
Forced : Нет
Аудио #4
Идентификатор : 5
Формат : AC-3
Формат/Информация : Audio Coding 3
Профиль формата : Dolby Digital
Расширение режима : CM (complete main)
Параметр Endianness формата : Big
Идентификатор кодека : A_AC3
Продолжительность : 1 ч. 58 м.
Вид битрейта : Постоянный
Битрейт : 192 Кбит/сек
Каналы : 2 канала
Расположение каналов : Front: L R
Частота : 48,0 КГц
Битовая глубина : 16 бит
Метод сжатия : С потерями
Размер потока : 162 Мбайт (2%)
Заголовок : Commentary
Язык : English
Default : Нет
Forced : Нет
Текст #1
Идентификатор : 6
Формат : UTF-8
Идентификатор кодека : S_TEXT/UTF8
Идентификатор кодека/Информация : UTF-8 Plain Text
Заголовок : full
Язык : Russian
Default : Нет
Forced : Нет
Текст #2
Идентификатор : 7
Формат : UTF-8
Идентификатор кодека : S_TEXT/UTF8
Идентификатор кодека/Информация : UTF-8 Plain Text
Заголовок : Commentary
Язык : Russian
Default : Нет
Forced : Нет
Текст #3
Идентификатор : 8
Формат : UTF-8
Идентификатор кодека : S_TEXT/UTF8
Идентификатор кодека/Информация : UTF-8 Plain Text
Заголовок : Комментарии в режиме "детали"
Язык : Russian
Default : Нет
Forced : Нет
Текст #4
Идентификатор : 9
Формат : UTF-8
Идентификатор кодека : S_TEXT/UTF8
Идентификатор кодека/Информация : UTF-8 Plain Text
Заголовок : full
Язык : English
Default : Нет
Forced : Нет
Текст #5
Идентификатор : 10
Формат : UTF-8
Идентификатор кодека : S_TEXT/UTF8
Идентификатор кодека/Информация : UTF-8 Plain Text
Заголовок : SDH
Язык : English
Default : Нет
Forced : Нет
Меню
00:00:00.000 : en:00:00:00.000
00:08:04.984 : en:00:08:04.984
00:15:19.710 : en:00:15:19.710
00:20:29.186 : en:00:20:29.186
00:27:35.279 : en:00:27:35.279
00:36:09.667 : en:00:36:09.667
00:41:46.671 : en:00:41:46.671
00:45:08.915 : en:00:45:08.915
00:53:36.088 : en:00:53:36.088
00:59:45.957 : en:00:59:45.957
01:07:13.571 : en:01:07:13.571
01:13:11.929 : en:01:13:11.929
01:18:58.776 : en:01:18:58.776
01:27:17.941 : en:01:27:17.941
01:32:33.965 : en:01:32:33.965
01:40:05.249 : en:01:40:05.249

Скриншоты


Total Recall 2012 1080p BluRay DD5.1 x264-DON

INFO
RUNTIME...........: 1h:58m:18s
RELEASE SIZE......: 8,79 GB
VIDEO CODEC.......: x264, 10000, L4.1
VIDEO BITRATE.....: 10000 Kbps
RESOLUTION........: 1920 X 802
FRAMERATE.........: 23.976 fps
AUDIO.............: English AC-3 @ 640 kbps
SUBS..............: English.
CHAPTERS..........: Yes.
SOURCE............: Total.Recall.2012.1080p.CAN.Blu-ray.AVC.4K.TrueHD.5.1-EbP
ENCODER...........: raphaex
RELEASE DATE......: 18/07/2013
x264 INFO:
x264 [info]: profile High, level 4.1
x264 [info]: frame I:1650 Avg QP:13.83 size:144890
x264 [info]: frame P:49101 Avg QP:15.07 size: 78507
x264 [info]: frame B:119433 Avg QP:15.57 size: 40001
x264 [info]: consecutive B-frames: 7.0% 6.5% 10.3% 39.0% 12.3% 18.0% 3.9% 3.0%
encoded 170184 frames, 4.77 fps, 9998.49 kb/s
Скачать

Скачать торрент!

Как скачивать? · Что такое торрент? · Рейтинг и ограничения

Сайт не распространяет и не хранит электронные версии произведений, а лишь предоставляет доступ к создаваемому пользователями каталогу ссылок на торрент-файлы, которые содержат только списки хеш-сумм

[Профиль] [ЛС]
Показать сообщения:    
Ответить на тему

Текущее время: Сегодня 16:27

Часовой пояс: GMT + 4



Вы не можете начинать темы
Вы не можете отвечать на сообщения
Вы не можете редактировать свои сообщения
Вы не можете удалять свои сообщения
Вы не можете голосовать в опросах
Вы не можете прикреплять файлы к сообщениям
Вы не можете скачивать файлы