Лучшее предложение / La migliore offerta / The Best Offer (Джузеппе Торнаторе / Giuseppe Tornatore) [2013, Италия, триллер, мелодрама, драма, BDRip-AVC] [ITA Transfer] Dub + Original + Subs (rus, ita)

Ответить на тему
 
Автор Сообщение

user ®

Стаж: 7 лет 7 месяцев

Сообщений: 20008

Пост Пост: #1 от 11-Сен-2013 03:40

[Цитировать]

Лучшее предложение / La migliore offerta / The Best Offer- Страна: Италия
Жанр: триллер, мелодрама, драма
Год выпуска: 2013
Продолжительность: 02:10:58-Перевод: Профессиональный (полное дублирование) [Blu-Ray RUS]
Оригинальная аудиодорожка: (Английская)
Cубтитры: Русские, Итальянские
Формат субтитров: softsub (SRT)-Режиссер: Джузеппе Торнаторе / Giuseppe Tornatore
В ролях: Джеффри Раш (Virgil Oldman), Джим Стёрджесс (Robert), Сильвия Хукс (Claire), Дональд Сазерленд (Billy Whistler), Филип Джексон (Fred), Дермот Краули (Lambert), Кируна Стамелл (Girl in the bar), Лия Кебеде (Sarah), Катерина Каподилиста (Young woman), Ген Сето (Housekeeper), Джон Бенфилд (Bartender)-Описание: Вергилий Олдман — управляющий директор ведущего аукционного дома. Время от времени со своим партнёром Билли на глазах у всего мира он проворачивает хитроумные аферы, ловко манипулируя и вводя в заблуждение как продавцов, так и покупателей. В секретном зале своей виллы он собрал сотни бесценных картин из разных эпох.
Однажды таинственная женщина, скрывающая свою личность, просит его продать антиквариат её семьи. Среди многочисленных произведений искусства раз за разом Олдман обнаруживает частицы давно утерянного механизма. В своё время поговаривали, что для того чтобы его оживить, создатели прибегали к помощи высших сил… Складывая, как пазл, найденные детали, вместе со своим гениальным другом Робертом они пытаются разгадать этот секрет. Но Олдман заинтересован не только предметами старины…
-Дополнительная информация:
За работу со звуком с RUS transfer'a спасибо valera76- -Качество видео: BDRip-AVC Исх: Лучшее предложение / La migliore offerta / The Best Offer [BDRemux 1080p] (ITA Transfer)
Формат видео: MKV
Автор рипа: | dOrOgOi-Видео: 1 132 x 474 (2.40:1), 24.000 fps, AVC, ~2 297 kbps avg, 0.178 bit/pixel
Аудио 1: AC3, 48.0 KHz, 6 channels (Front: L C R, Side: L R, LFE), 448.00 kbps avg | Профессиональный (полное дублирование) [Blu-Ray RUS]
Аудио 2: AC3, 48.0 KHz, 6 channels (Front: L C R, Side: L R, LFE), 448.00 kbps avg | Оригинал (Английский)

Интересные факты о фильме

* В фильме показаны несколько произведений искусства. Картина, которую восстанавливают, — это «Портрет молодой девушки» (ок. 1470) Петруса Кристуса. Среди изучаемых Олдманом работ есть «Рождение Венеры» (1879) Уильяма-Адольфа Бугро. Среди женских портретов в его коллекции есть «Портрет молодой женщины (La Fornarina)» (ок. 1519) и «Портрет молодой женщины (La Muta)» (1507) Рафаэля, «La Bella» (Красавица) (1536) Тициана, «Портрет Элеоноры Толедской» (1560) и «Портрет Лукреции Панчатики» (1541) Аньоло Бронзино, «Портрет Катерины Сфорца» (ок. 1490) Лоренцо ди Креди, «Цыганка» Бокаччо Бокаччино, «Портрет девушки с книгой стихов Петрарки» (ок. 1528) Андреа дель Сарто, «Портрет Бьянки Капелло» (ок. 1572) Алессандро Аллори, «Портрет Элисбет Тухер» (1499) Альбрехта Дюрера, и «Жанна Самари в декольте (La Reverie)» (1877) Пьера Огюста Ренуара. Есть также работы Лукаса Кранаха ст., Питера Пауля Рубенса, Франсиско Гойи, Элизабет Виже-Лебрен, Данте Габриэль Россетти, Амедео Модильяни, Моргана Уэйстлинга и многих других.
* Торнаторе снял альтернативную концовку к фильму. Место действия — ресторан в Риме. То же самое место используется в предшествующих сценах, но заключительная сцена, снятая на той же съемочной площадке в Риме, была вырезана и заменена более сложной сценой, также слегка изменили диалог, снятый в различных местах по миру.

MediaInfo & x264 log

x264 log

raw [info]: 1132x474p 1:1 @ 24/1 fps (cfr)
x264 [info]: using SAR=1/1
x264 [info]: using cpu capabilities: MMX2 SSE2Fast SSSE3 SSE4.2 AVX
x264 [info]: profile High, level 4.1
x264 [info]: frame I:1857  Avg QP:13.74  size:106425
x264 [info]: frame P:38571 Avg QP:16.18  size: 26503
x264 [info]: frame B:148164 Avg QP:18.78  size:  6996
x264 [info]: consecutive B-frames:  1.8%  2.0%  6.4% 19.6% 19.4% 34.3%  6.9%  3.4%  2.2%  0.8%  0.6%  1.2%  0.5%  0.6%  0.3%
x264 [info]: mb I  I16..4: 11.3% 50.8% 37.9%
x264 [info]: mb P  I16..4:  0.3%  5.5%  1.4%  P16..4: 30.3% 34.5% 16.6%  4.5%  0.8%    skip: 6.0%
x264 [info]: mb B  I16..4:  0.0%  0.5%  0.1%  B16..8: 30.5% 19.4%  3.8%  direct: 4.8%  skip:40.9%  L0:42.6% L1:42.0% BI:15.4%
x264 [info]: 8x8 transform intra:68.0% inter:45.2%
x264 [info]: direct mvs  spatial:98.4% temporal:1.6%
x264 [info]: coded y,uvDC,uvAC intra: 92.2% 75.7% 63.0% inter: 18.6% 10.7% 2.3%
x264 [info]: i16 v,h,dc,p: 19% 11% 23% 47%
x264 [info]: i8 v,h,dc,ddl,ddr,vr,hd,vl,hu: 16% 10% 12%  8% 10% 12% 10% 12% 12%
x264 [info]: i4 v,h,dc,ddl,ddr,vr,hd,vl,hu: 17% 10%  6%  8% 12% 13% 11% 11% 11%
x264 [info]: i8c dc,h,v,p: 39% 29% 21% 11%
x264 [info]: Weighted P-Frames: Y:2.3% UV:0.8%
x264 [info]: ref P L0: 46.2%  9.2% 17.8%  6.4%  5.1%  3.6%  3.2%  1.7%  1.5%  1.2%  1.2%  1.0%  0.9%  0.9%  0.1%  0.0%
x264 [info]: ref B L0: 68.8% 12.9%  6.4%  3.1%  2.2%  1.8%  1.4%  0.9%  0.8%  0.7%  0.7%  0.3%  0.1%
x264 [info]: ref B L1: 91.0%  9.0%
x264 [info]: kb/s:2297.13
x264 [total]: encoded 188592 frames, 10.74 fps, 2297.13 kb/s
General
Unique ID                                : 180495727846102401260991048395262003492 (0x87CA36741D7F8F0C836B9E7213000924)
Complete name                            : D:Luchshee.predlozhenie.La migliore.offerta.2012.BDRip-AVC.DUB.ENG.SUBs.by.dOrOgOi.mkv
Format                                   : Matroska
Format version                           : Version 4 / Version 2
File size                                : 2.92 GiB
Duration                                 : 2h 10mn
Overall bit rate                         : 3 195 Kbps
Movie name                               : Luchshee.predlozhenie.La migliore.offerta.2012.BDRip-AVC.DUB.ENG.SUBs.by.dOrOgOi
Encoded date                             : UTC 2013-09-09 21:52:45
Writing application                      : mkvmerge v6.3.0 ('You can't stop me!') built on Jun 28 2013 20:09:41
Writing library                          : libebml v1.3.0 + libmatroska v1.4.0
Video
ID                                       : 1
Format                                   : AVC
Format/Info                              : Advanced Video Codec
Format profile                           : High@L4.1
Format settings, CABAC                   : Yes
Format settings, ReFrames                : 14 frames
Codec ID                                 : V_MPEG4/ISO/AVC
Duration                                 : 2h 10mn
Bit rate                                 : 2 297 Kbps
Width                                    : 1 132 pixels
Height                                   : 474 pixels
Display aspect ratio                     : 2.40:1
Frame rate mode                          : Constant
Frame rate                               : 24.000 fps
Color space                              : YUV
Chroma subsampling                       : 4:2:0
Bit depth                                : 8 bits
Scan type                                : Progressive
Bits/(Pixel*Frame)                       : 0.178
Stream size                              : 2.05 GiB (70%)
Title                                    : Luchshee.predlozhenie.La migliore.offerta.2012.BDRip-AVC.DUB.ENG.SUBs.by.dOrOgOi
Writing library                          : x264 core 138 r2358 9e941d1
Encoding settings                        : cabac=1 / ref=14 / deblock=1:-3:-3 / analyse=0x3:0x133 / me=umh / subme=11 / psy=1 / psy_rd=1.05:0.10 / mixed_ref=1 / me_range=48 / chroma_me=1 / trellis=2 / 8x8dct=1 / cqm=0 / deadzone=21,11 / fast_pskip=0 / chroma_qp_offset=-3 / threads=12 / lookahead_threads=3 / sliced_threads=0 / nr=0 / decimate=1 / interlaced=0 / bluray_compat=0 / constrained_intra=0 / bframes=14 / b_pyramid=2 / b_adapt=2 / b_bias=0 / direct=3 / weightb=1 / open_gop=0 / weightp=2 / keyint=250 / keyint_min=24 / scenecut=40 / intra_refresh=0 / rc_lookahead=60 / rc=2pass / mbtree=0 / bitrate=2297 / ratetol=1.0 / qcomp=0.60 / qpmin=0 / qpmax=69 / qpstep=4 / cplxblur=20.0 / qblur=0.5 / vbv_maxrate=50000 / vbv_bufsize=62500 / nal_hrd=none / ip_ratio=1.40 / pb_ratio=1.30 / aq=2:1.00
Language                                 : English
Default                                  : Yes
Forced                                   : No
Audio #1
ID                                       : 2
Format                                   : AC-3
Format/Info                              : Audio Coding 3
Mode extension                           : CM (complete main)
Format settings, Endianness              : Big
Codec ID                                 : A_AC3
Duration                                 : 2h 10mn
Bit rate mode                            : Constant
Bit rate                                 : 448 Kbps
Channel count                            : 6 channels
Channel positions                        : Front: L C R, Side: L R, LFE
Sampling rate                            : 48.0 KHz
Bit depth                                : 16 bits
Compression mode                         : Lossy
Stream size                              : 420 MiB (14%)
Title                                    : DUB [Blu Ray -  RUS]
Language                                 : Russian
Default                                  : Yes
Forced                                   : No
Audio #2
ID                                       : 3
Format                                   : AC-3
Format/Info                              : Audio Coding 3
Mode extension                           : CM (complete main)
Format settings, Endianness              : Big
Codec ID                                 : A_AC3
Duration                                 : 2h 10mn
Bit rate mode                            : Constant
Bit rate                                 : 448 Kbps
Channel count                            : 6 channels
Channel positions                        : Front: L C R, Side: L R, LFE
Sampling rate                            : 48.0 KHz
Bit depth                                : 16 bits
Compression mode                         : Lossy
Stream size                              : 420 MiB (14%)
Title                                    : English
Language                                 : English
Default                                  : No
Forced                                   : No
Text #1
ID                                       : 4
Format                                   : UTF-8
Codec ID                                 : S_TEXT/UTF8
Codec ID/Info                            : UTF-8 Plain Text
Language                                 : Russian
Default                                  : No
Forced                                   : No
Text #2
ID                                       : 5
Format                                   : UTF-8
Codec ID                                 : S_TEXT/UTF8
Codec ID/Info                            : UTF-8 Plain Text
Language                                 : Italian
Default                                  : No
Forced                                   : No
Menu
00:00:00.000                             : en:00:00:00.000
00:08:59.875                             : en:00:08:59.875
00:16:33.542                             : en:00:16:33.542
00:32:53.167                             : en:00:32:53.167
00:48:00.500                             : en:00:48:00.500
00:53:51.500                             : en:00:53:51.500
01:01:55.000                             : en:01:01:55.000
01:11:45.833                             : en:01:11:45.833
01:24:45.333                             : en:01:24:45.333
01:34:51.708                             : en:01:34:51.708
01:40:27.000                             : en:01:40:27.000
01:57:58.667                             : en:01:57:58.667
Скачать

Скачать торрент!

Как скачивать? · Что такое торрент? · Рейтинг и ограничения

Сайт не распространяет и не хранит электронные версии произведений, а лишь предоставляет доступ к создаваемому пользователями каталогу ссылок на торрент-файлы, которые содержат только списки хеш-сумм

[Профиль] [ЛС]
Показать сообщения:    
Ответить на тему

Текущее время: Сегодня 20:10

Часовой пояс: GMT + 4



Вы не можете начинать темы
Вы не можете отвечать на сообщения
Вы не можете редактировать свои сообщения
Вы не можете удалять свои сообщения
Вы не можете голосовать в опросах
Вы не можете прикреплять файлы к сообщениям
Вы не можете скачивать файлы