Холодные глаза / Слежка / Cold Eyes / Gam-si-ja-deul (Чо Ый Сок / Jo Eui-seok, Ким Бён Со / Kim Byeong-seo) [2013, Южная Корея, криминал, драма, HDRip] DVO

Ответить на тему
 
Автор Сообщение

user ®

Стаж: 11 лет

Сообщений: 15151

Пост Пост: #1 от 11-Сен-2013 00:30

[Цитировать]

Холодные глаза / Слежка / Cold Eyes / Gam-si-ja-deul
Страна: Южная Корея
Жанр: криминал, драма
Год выпуска: 2013
Продолжительность: 01:58:57-Перевод: Двухголосый любительский den904 & deadsno
Оригинальная аудиодорожка: нет
Субтитры: нет-Режиссер: Чо Ый Сок / Jo Eui-seok, Ким Бён Со / Kim Byeong-seo-В ролях: Сор Гён Гу, Чон У Сон, Хан Хён Чжу, Чин Гён, Чон Хо, И Дон Чин-Описание: Команда специалистов по наблюдению, входящая в состав специального подразделения полиции, получает задание, с которым никто кроме них не может справиться. Им предстоит выследить виновных в совершении ряда дерзких банковских ограблений. Используя самую современную технику и незаурядные аналитические данные, группа выходит на след преступников. Но оказывается, что здесь замешана влиятельная организация, и обезвредить её будет совсем не просто...- -Качество видео: HDRip (720p)
Формат видео: AVI
Видео: XviD, 720x304 (2.37:1), 25 fps, 1618 kbps avg, 0.29 bit/pixel
Аудио: Русский MPEG layer 3, 2 ch, 128 kbps

Доп. информация:

Переводчик: indiotka
Рип: Public Enemy (((
Постер: Public Enemy (((

MediaInfo

Format : AVI
Format/Info : Audio Video Interleave
File size : 1.46 GiB
Duration : 1h 58mn
Overall bit rate : 1 757 Kbps
Movie name : 2013_Cold Eyes
Director : Jo Eui-seok / Kim Byeong-seo
Genre : Action/Comedy/Crime
Writing application : VirtualDubMod 1.5.10.2 (build 2540/release)
Original source form/Name : Movie
Comment : Altruist (Public Enemy ((()
Video
ID : 0
Format : MPEG-4 Visual
Format profile : Advanced Simple@L5
Format settings, BVOP : 1
Format settings, QPel : No
Format settings, GMC : No warppoints
Format settings, Matrix : Custom
Codec ID : XVID
Codec ID/Hint : XviD
Duration : 1h 58mn
Bit rate : 1 619 Kbps
Width : 720 pixels
Height : 304 pixels
Display aspect ratio : 2.35:1
Frame rate : 25.000 fps
Color space : YUV
Chroma subsampling : 4:2:0
Bit depth : 8 bits
Scan type : Progressive
Compression mode : Lossy
Bits/(Pixel*Frame) : 0.296
Stream size : 1.35 GiB (92%)
Writing library : XviD 73
Audio
ID : 1
Format : MPEG Audio
Format version : Version 1
Format profile : Layer 3
Mode : Joint stereo
Mode extension : MS Stereo
Codec ID : 55
Codec ID/Hint : MP3
Duration : 1h 58mn
Bit rate mode : Constant
Bit rate : 128 Kbps
Channel(s) : 2 channels
Sampling rate : 48.0 KHz
Compression mode : Lossy
Stream size : 109 MiB (7%)
Alignment : Aligned on interleaves
Interleave, duration : 40 ms (1.00 video frame)
Interleave, preload duration : 504 ms

Скриншот с названием

Скриншоты

Скачать

Скачать торрент! Холодные глаза / Слежка / Cold Eyes / Gam-si-ja-deul (Чо Ый Сок / Jo Eui-seok, Ким Бён Со / Kim Byeong-seo) [2013, Южная Корея, криминал, драма, HDRip] DVO

Как скачивать? · Что такое торрент? · Рейтинг и ограничения

Сайт не распространяет и не хранит электронные версии произведений, а лишь предоставляет доступ к создаваемому пользователями каталогу ссылок на торрент-файлы, которые содержат только списки хеш-сумм

[Профиль] [ЛС]
Показать сообщения:    
Ответить на тему

Текущее время: Сегодня 15:51

Часовой пояс: GMT + 4



Вы не можете начинать темы
Вы не можете отвечать на сообщения
Вы не можете редактировать свои сообщения
Вы не можете удалять свои сообщения
Вы не можете голосовать в опросах
Вы не можете прикреплять файлы к сообщениям
Вы не можете скачивать файлы