Первая скрипка (Дмитрий Бабиченко) [1958 г., мультфильм, DVB-AVC]

Ответить на тему
 
Автор Сообщение

user ®

Стаж: 7 лет 7 месяцев

Сообщений: 20008

Пост Пост: #1 от 10-Сен-2013 21:20

[Цитировать]

Первая скрипка
Жанр: мультфильм
Год выпуска: 1958
Продолжительность: 00:20:05
Режиссёр: Дмитрий Бабиченко
Описание: великолепный мультфильм про кузнечика, который очень любил хвататься. Талант без труда не приведет к успеху ...
Доп. информация:

Качество видео: DVB
Формат видео: MPEG-TS
Видео: MPEG4 Video (H264), 720x576@785x576 (4:3), анаморф, 25 fps, 5000 kbps
Аудио: MPEG Audio, 2 сh, 48 kHz, 192 kbps
Трансляция спутникового канала:

MediaInfo

D:\Первая скрипка. (1958)_DVB by SLuMeP.ts
General #1
ID : 1 (0x1)
Complete name : D:\Первая скрипка. (1958)_DVB by SLuMeP.ts
Format : MPEG-TS
File size : 788 MiB
Duration : 20mn 5s
Overall bit rate : 5 482 Kbps
Video #2271
ID : 2271 (0x8DF)
Menu ID : 1 (0x1)
Format : AVC
Format/Info : Advanced Video Codec
Format profile : Main@L3.0
Format settings, CABAC : Yes
Format settings, ReFrames : 3 frames
Codec ID : 27
Duration : 20mn 5s
Bit rate : 5 017 Kbps
Width : 720 pixels
Height : 576 pixels
Display aspect ratio : 4:3
Frame rate : 25.000 fps
Standard : Component
Color space : YUV
Chroma subsampling : 4:2:0
Bit depth : 8 bits
Scan type : Interlaced
Scan order : Top Field First
Bits/(Pixel*Frame) : 0.484
Stream size : 721 MiB (92%)
Color primaries : BT.470-6 System B, BT.470-6 System G, BT.601-6 625, BT.1358 625, BT.1700 625 PAL, BT.1700 625 SECAM
Transfer characteristics : BT.470-6 System B, BT.470-6 System G
Matrix coefficients : BT.470-6 System B, BT.470-6 System G, BT.601-6 625, BT.1358 625, BT.1700 625 PAL, BT.1700 625 SECAM, IEC 61966-2-4 601
Audio #2272
ID : 2272 (0x8E0)
Menu ID : 1 (0x1)
Format : MPEG Audio
Format version : Version 1
Format profile : Layer 2
Codec ID : 3
Duration : 20mn 4s
Bit rate mode : Constant
Bit rate : 192 Kbps
Channel(s) : 2 channels
Sampling rate : 48.0 KHz
Compression mode : Lossy
Delay relative to video : -40ms
Stream size : 27.6 MiB (4%)
Language : Russian

Скриншоты

Скачать

Скачать торрент!

Как скачивать? · Что такое торрент? · Рейтинг и ограничения

Сайт не распространяет и не хранит электронные версии произведений, а лишь предоставляет доступ к создаваемому пользователями каталогу ссылок на торрент-файлы, которые содержат только списки хеш-сумм

[Профиль] [ЛС]
Показать сообщения:    
Ответить на тему

Текущее время: Сегодня 15:54

Часовой пояс: GMT + 4



Вы не можете начинать темы
Вы не можете отвечать на сообщения
Вы не можете редактировать свои сообщения
Вы не можете удалять свои сообщения
Вы не можете голосовать в опросах
Вы не можете прикреплять файлы к сообщениям
Вы не можете скачивать файлы