Семейка Бумеранг / Boomerang Family / Go-ryeong-hwa-ga-jok (Сон Хэ Сон / Song Hae-seong) [2013, Южная Корея, комедия, драма, DVDRip] DVO

Ответить на тему
 
Автор Сообщение

user ®

Стаж: 13 лет

Сообщений: 15071

Пост Пост: #1 от 10-Сен-2013 21:20

[Цитировать]

Семейка Бумеранг / Boomerang Family / Go-ryeong-hwa-ga-jok
Страна: Южная Корея
Жанр: комедия, драма
Год выпуска: 2013
Продолжительность: 01:53:02-Перевод: любительский (двухголосый закадровый) den904 & deadsno
Оригинальная аудиодорожка: нет
Субтитры: нет-Режиссер: Сон Хэ Сон / Song Hae-seong-В ролях: Пак Хэ Ир, Юн Чже Мун, Кон Хён Чин, Юн Е Чон, Чин Чи Хи, Е Чи Вон
-
Описание: Ин Мо, режиссер-неудачник, влачащий жалкое существование, поддается на уговоры престарелой матери и переезжает к ней. В итоге, выясняется, что на шее у матери уже сидит его брат... и теперь их, дармоедов, двое... а через некоторое время, к ним присоединяется и разведенная сестра... В бесконечных семейных разборках, они все равно остаются семьей и поддерживают друг друга даже, когда гангстеры начинают угрожать им расправой...-
-Качество видео: DVDRip (DVD9)
Формат видео: AVI
Видео: XviD, 720x400 (1.80:1), 23.976 fps, 1682 kbps avg, 0.24 bit/pixel
Аудио: Русский MPEG layer 3, 2 ch, 160 kbps

Доп. информация:

Переводчик: Skyworker
Рип: Public Enemy (((
Постер: Public Enemy (((

MediaInfo

Format : AVI
Format/Info : Audio Video Interleave
File size : 1.46 GiB
Duration : 1h 53mn
Overall bit rate : 1 852 Kbps
Movie name : 2013_Boomerang Family
Director : Song Hae-seong
Writing application : VirtualDubMod 1.5.10.2 (build 2540/release)
Original source form/Name : Movie
Copyright : CJ
Comment : Altruist (Public Enemy ((()
Video
ID : 0
Format : MPEG-4 Visual
Format profile : Advanced Simple@L5
Format settings, BVOP : 1
Format settings, QPel : No
Format settings, GMC : No warppoints
Format settings, Matrix : Custom
Codec ID : XVID
Codec ID/Hint : XviD
Duration : 1h 53mn
Bit rate : 1 683 Kbps
Width : 720 pixels
Height : 400 pixels
Display aspect ratio : 16:9
Frame rate : 23.976 fps
Color space : YUV
Chroma subsampling : 4:2:0
Bit depth : 8 bits
Scan type : Progressive
Compression mode : Lossy
Bits/(Pixel*Frame) : 0.244
Stream size : 1.33 GiB (91%)
Writing library : XviD 73
Audio
ID : 1
Format : MPEG Audio
Format version : Version 1
Format profile : Layer 3
Mode : Joint stereo
Codec ID : 55
Codec ID/Hint : MP3
Duration : 1h 53mn
Bit rate mode : Constant
Bit rate : 160 Kbps
Channel(s) : 2 channels
Sampling rate : 48.0 KHz
Compression mode : Lossy
Stream size : 129 MiB (9%)
Alignment : Aligned on interleaves
Interleave, duration : 42 ms (1.00 video frame)
Interleave, preload duration : 504 ms

Скриншот с названием

Скриншоты

Скачать

Скачать торрент! Семейка Бумеранг / Boomerang Family / Go-ryeong-hwa-ga-jok (Сон Хэ Сон / Song Hae-seong) [2013, Южная Корея, комедия, драма, DVDRip] DVO

Как скачивать? · Что такое торрент? · Рейтинг и ограничения

Сайт не распространяет и не хранит электронные версии произведений, а лишь предоставляет доступ к создаваемому пользователями каталогу ссылок на торрент-файлы, которые содержат только списки хеш-сумм

[Профиль] [ЛС]
Показать сообщения:    
Ответить на тему

Текущее время: Сегодня 16:31

Часовой пояс: GMT + 4



Вы не можете начинать темы
Вы не можете отвечать на сообщения
Вы не можете редактировать свои сообщения
Вы не можете удалять свои сообщения
Вы не можете голосовать в опросах
Вы не можете прикреплять файлы к сообщениям
Вы не можете скачивать файлы