Гувернер / Знакомство / Parichay (Сампуран Сингх Гульзар / Gulzar) [1972, Индия, Семейный, DVDRip] Dub

Ответить на тему
 
Автор Сообщение

user ®

Стаж: 12 лет

Сообщений: 15124

Пост Пост: #1 от 10-Сен-2013 21:20

[Цитировать]

Гувернер / Знакомство / Parichay
-Страна: Индия
Жанр: Семейный
Год выпуска: 1972
Продолжительность: 02:17:47-Перевод: Профессиональный (полное дублирование)
Cубтитры: Нет-Режиссер: Сампуран Сингх Гульзар / Gulzar-В ролях: Джитендра, Джая Бхадури, Пран, Говардан Асрани, А.К. Хангал, Лила Мишра, Кешто Мукхерджи, Санджив Кумар, Винод Кханна, Пайнтал, Гита Сиддхарт, Дев Кишан
Дети: беби Пинки, мастер Кишор, мастер Рави, мастер Раджу-Описание: Наставник назначен преподавателем непослушным и вредным внукам Бахадура Рая. В то время как дедушка, бывший военный, делает все, чтобы приструнить и дисциплинировать внуков, внуки более симпатизируют веселому наставнику. Наставник постепенно располагает к себе детей, и теперь хочет получить симпатию и старшей дочери хозяина. Как только это случается, наставнику остается самое трудное - расположить к себе строгого дедушку.-- --Качество видео: DVDRip
Формат видео: AVI-Видео: XviD, 624х464, 23.976 fps, 1380 kbps
Аудио: MP3, 48 kHz, 2 ch, 128 Kbps [Dub]--Риппер: soso4eg
Синхронизация дубляжа: василисса-За дублированную дорожку спасибо СЕРЖИК1981-- -
-

Скриншот с названием


-

Скриншоты


-

MI

Общее
Полное имя : D:\[Релизы]\[DVDRip]\Guvernyor.1972.DVDRip.XviD.1.45.Gb-soso4eg.avi
Формат : AVI
Формат/Информация : Audio Video Interleave
Размер файла : 1,46 Гбайт
Продолжительность : 2 ч. 17 м.
Общий поток : 1517 Кбит/сек
Название фильма : Guvernyor.1972.DVDRip.XviD.1.45.Gb-soso4eg
Программа кодирования : VirtualDubMod 1.5.10.3 | www.virtualdub-fr.org || (build 2550/release)
Видео
Идентификатор : 0
Формат : MPEG-4 Visual
Профиль формата : Advanced Simple@L5
Параметр BVOP формата : 2
Параметр QPel формата : Нет
Параметр GMC формата : Без точки перехода
Параметр матрицы формата : Default (H.263)
Идентификатор кодека : XVID
Идентификатор кодека/Подсказка : XviD
Продолжительность : 2 ч. 17 м.
Битрейт : 1380 Кбит/сек
Ширина : 624 пикселя
Высота : 464 пикселя
Соотношение сторон : 4:3
Частота кадров : 23,976 кадра/сек
Цветовое пространство : YUV
Субдискретизация насыщенности : 4:2:0
Битовая глубина : 8 бит
Тип развёртки : Прогрессивная
Метод сжатия : С потерями
Бит/(Пиксели*Кадры) : 0.199
Размер потока : 1,33 Гбайт (91%)
Библиотека кодирования : XviD 1.2.1 (UTC 2008-12-04)
Аудио
Идентификатор : 1
Формат : MPEG Audio
Версия формата : Version 1
Профиль формата : Layer 3
Режим : Joint stereo
Расширение режима : MS Stereo
Идентификатор кодека : 55
Идентификатор кодека/Подсказка : MP3
Продолжительность : 2 ч. 17 м.
Вид битрейта : Постоянный
Битрейт : 128 Кбит/сек
Каналы : 2 канала
Частота : 48,0 КГц
Метод сжатия : С потерями
Размер потока : 126 Мбайт (8%)
Выравнивание : Соединение по промежуткам
Продолжительность промежутка : 42 мс. (1,00 видеокадр)
Время предзагрузки промежутка : 504 мс.

-
-
Скачать

Скачать торрент! Гувернер / Знакомство / Parichay (Сампуран Сингх Гульзар / Gulzar) [1972, Индия, Семейный, DVDRip] Dub

Как скачивать? · Что такое торрент? · Рейтинг и ограничения

Сайт не распространяет и не хранит электронные версии произведений, а лишь предоставляет доступ к создаваемому пользователями каталогу ссылок на торрент-файлы, которые содержат только списки хеш-сумм

[Профиль] [ЛС]
Показать сообщения:    
Ответить на тему

Текущее время: Сегодня 13:27

Часовой пояс: GMT + 4



Вы не можете начинать темы
Вы не можете отвечать на сообщения
Вы не можете редактировать свои сообщения
Вы не можете удалять свои сообщения
Вы не можете голосовать в опросах
Вы не можете прикреплять файлы к сообщениям
Вы не можете скачивать файлы