Любовь и секс на Ибице / Verliefd op Ibiza (Йохан Нийенхейс / Johan Nijenhuis) [2013 г., Нидерланды, комедия, мелодрама, DVDRip] VO (GalVid)

Ответить на тему
 
Автор Сообщение

user ®

Стаж: 7 лет 7 месяцев

Сообщений: 20008

Пост Пост: #1 от 10-Сен-2013 21:20

[Цитировать]

Любовь и секс на Ибице / Verliefd op Ibiza
Страна: Нидерланды
Жанр: комедия, мелодрама
Год выпуска: 2013
Продолжительность: 01:52:01
Перевод: Одноголосый закадровый (GalVid)
Субтитры: нет
Оригинальная аудиодорожка: нет
Режиссер: Йохан Нийенхейс / Johan Nijenhuis
В ролях: Виллеке ван Аммельрой, Йим Баккум, Рик Энгелкес, Ким Феенстра, Джаспер Готтлиб, Мариус Готтлиб, Кимберли Клавер, Симоне Клейнсма, Ян Коейман, Дэвид Люсиер
Описание: Футболист Кевин только что заключил выгодный контракт с мадридским Реалом. Он вряд ли понимает, что делать со свалившимся на него богатством, но его подруга Эльза знает, как Кевин должен тратить свои миллионы... Две 40-летних подруги Джеки и Ирма хотя и проводят отпуск вместе, но имеют разные представления об идеальном отдыхе: Джеки предпочитает тусоваться с молодыми горячими парнями, тогда как Ирме милее спокойный отдых на пляже с книгой... Братья Дилан и Бойд мечтают стать DJ-звездами мирового класса... Пути всех этих героев пересекаются на острове Ибица.
Доп. информация:
Озвучивал: GalVid
IMDb 4,8/10 (872 votes)
Кинопоиск
Релиз:
Сэмпл
Качество видео: DVDRip
Формат: AVI
Видео: 720x400 (1.80:1), 25 fps, DivX Codec 5.2.1 build 1328 ~1348 kbps avg, 0.19 bit/pixel
Аудио: 48 kHz, AC3 Dolby Digital, 3/2 (L,C,R,l,r) + LFE ch, ~448 kbps

MediaInfo

Общее
Полное имя : D:\Torrent-D\Verliefd.op.Ibiza.(DVDRip).GalVid.avi
Формат : AVI
Формат/Информация : Audio Video Interleave
Размер файла : 1,41 Гбайт
Продолжительность : 1 ч. 52 м.
Общий поток : 1807 Кбит/сек
Название фильма : Verliefd.op.Ibiza.(DVDRip).GalVid
Режиссёр : Release by GalVid
Программа кодирования : VirtualDubMod 1.5.10.3 (build 2550/release)
Видео
Идентификатор : 0
Формат : MPEG-4 Visual
Параметр BVOP формата : Нет
Параметр QPel формата : Нет
Параметр GMC формата : Без точки перехода
Параметр матрицы формата : Default (H.263)
Идентификатор кодека : DX50
Идентификатор кодека/Подсказка : DivX 5
Продолжительность : 1 ч. 52 м.
Битрейт : 1349 Кбит/сек
Ширина : 720 пикс.
Высота : 400 пикс.
Соотношение сторон : 16:9
Частота кадров : 25,000 кадр/сек
Цветовое пространство : YUV
Подвыборка цветности : 4:2:0
Битовая глубина : 8 бит
Тип развёртки : Прогрессивная
Метод сжатия : С потерями
Бит/(Пиксели*Кадры) : 0.187
Размер потока : 1,06 Гбайт (75%)
Библиотека кодирования : DivX 5.2.1 (WaffleDay) (UTC 2004-09-08)
Аудио
Идентификатор : 1
Формат : AC-3
Формат/Информация : Audio Coding 3
Расширение режима : CM (complete main)
Идентификатор кодека : 2000
Продолжительность : 1 ч. 52 м.
Вид битрейта : Постоянный
Битрейт : 448 Кбит/сек
Канал(ы) : 6 канала(ов)
Расположение каналов : Front: L C R, Side: L R, LFE
Частота : 48,0 КГц
Битовая глубина : 16 бит
Метод сжатия : С потерями
Размер потока : 359 Мбайт (25%)
Выравнивание : Разделение по промежуткам
Продолжительность промежутка : 40 мс. (1,00 видеокадр)
Время предзагрузки промежутка : 500 ms

Скриншот с названием фильма

Скриншоты

Скачать

Скачать торрент!

Как скачивать? · Что такое торрент? · Рейтинг и ограничения

Сайт не распространяет и не хранит электронные версии произведений, а лишь предоставляет доступ к создаваемому пользователями каталогу ссылок на торрент-файлы, которые содержат только списки хеш-сумм

[Профиль] [ЛС]
Показать сообщения:    
Ответить на тему

Текущее время: Сегодня 16:06

Часовой пояс: GMT + 4



Вы не можете начинать темы
Вы не можете отвечать на сообщения
Вы не можете редактировать свои сообщения
Вы не можете удалять свои сообщения
Вы не можете голосовать в опросах
Вы не можете прикреплять файлы к сообщениям
Вы не можете скачивать файлы