Охотники на ведьм / Hansel and Gretel: Witch Hunters (Томми Виркола / Tommy Wirkola) [2013, США, Германия, ужасы, фэнтези, боевик, BDRip] [UNRATED] AVO (Гаврилов)

Ответить на тему
 
Автор Сообщение

user ®

Стаж: 7 лет 7 месяцев

Сообщений: 20008

Пост Пост: #1 от 10-Сен-2013 21:20

[Цитировать]

Охотники на ведьм / Hansel and Gretel: Witch Hunters
Расширенная версия / Unrated Cut
«Новый поворот старой истории»
- Страна: США, Германия / Gary Sanchez Productions, Metro-Goldwyn-Mayer, Paramount Pictures
Жанр: ужасы, фэнтези, боевик
Год выпуска: 2013
Продолжительность: 01:37:56
Перевод: Авторский (одноголосый закадровый)
Cубтитры: нет
Режиссёр: Томми Виркола / Tommy Wirkola
В ролях: Джереми Реннер / Jeremy Renner, Джемма Артертон / Gemma Arterton, Фамке Янссен / Famke Janssen, Пихла Виитала / Pihla Viitala, Дерек Мирс / Derek Mears, Робин Аткин Даунс / Robin Atkin Downes, Ингрид Болсай Бердал / Ingrid Bolso Berdal, Джоэнна Кулиг / Joanna Kulig, Томас Манн / Thomas Mann, Петер Стормаре / Peter Stormare, Бьорн Сундквист / Bjorn Sundquist, Райнер Бок / Rainer Bock, Томас Шарфф / Thomas Scharff, Седрик Ейх / Cedrik Eich, Вегар Хоел / Vegar Hoel.
Описание: Едва не погибнув в лапах ужасной ведьмы, Гензель и Гретель стали только сильнее. Одержимые местью, они ведут отчаянную борьбу со злом, даже не подозревая, что их поджидает нечто куда более опасное… собственное прошлое…-Рейтинг
imdb.com: 6.10 (83 561)
kinopoisk.ru: 6.563 (34 515)
MPAA: R - лицам до 17 лет обязательно присутствие взрослого-Сэмпл: http://multi-up.com/902110-Качество видео: BDRip
Формат видео: AVI
Видео: XviD build 65, 720x304 (2.37:1), 23.976 fps, ~1680 kbps avg, 0.32 bit/pixel
Аудио: 48 kHz, AC3 Dolby Digital, 3/2 (L,C,R,l,r) + LFE ch, ~448 kbps avg (AVO)
-

MediaInfo

General
Complete name : D:\Hansel.&.Gretel.Witch.Hunters.2013.Unrated.AVO.Gavrilov.BDRip.1,46Gb.XviD.AC3.avi
Format : AVI
Format/Info : Audio Video Interleave
File size : 1.46 GiB
Duration : 1h 37mn
Overall bit rate : 2 137 Kbps
Writing application : VirtualDubModRus 1.5.10.2 (build 2542/release)
Writing library : VirtualDubMod build 2542/release
Video
ID : 0
Format : MPEG-4 Visual
Format profile : Advanced Simple@L5
Format settings, BVOP : 1
Format settings, QPel : No
Format settings, GMC : No warppoints
Format settings, Matrix : Custom
Codec ID : XVID
Codec ID/Hint : XviD
Duration : 1h 37mn
Bit rate : 1 680 Kbps
Width : 720 pixels
Height : 304 pixels
Display aspect ratio : 2.35:1
Frame rate : 23.976 fps
Color space : YUV
Chroma subsampling : 4:2:0
Bit depth : 8 bits
Scan type : Progressive
Compression mode : Lossy
Bits/(Pixel*Frame) : 0.320
Stream size : 1.15 GiB (79%)
Writing library : XviD 65
Audio
ID : 1
Format : AC-3
Format/Info : Audio Coding 3
Mode extension : CM (complete main)
Format settings, Endianness : Big
Codec ID : 2000
Duration : 1h 37mn
Bit rate mode : Constant
Bit rate : 448 Kbps
Channel(s) : 6 channels
Channel positions : Front: L C R, Side: L R, LFE
Sampling rate : 48.0 KHz
Bit depth : 16 bits
Compression mode : Lossy
Stream size : 314 MiB (21%)
Alignment : Split accross interleaves
Interleave, duration : 42 ms (1.00 video frame)
Interleave, preload duration : 500 ms
Title : AVO

Скриншоты

Скачать

Скачать торрент!

Как скачивать? · Что такое торрент? · Рейтинг и ограничения

Сайт не распространяет и не хранит электронные версии произведений, а лишь предоставляет доступ к создаваемому пользователями каталогу ссылок на торрент-файлы, которые содержат только списки хеш-сумм

[Профиль] [ЛС]
Показать сообщения:    
Ответить на тему

Текущее время: Сегодня 20:19

Часовой пояс: GMT + 4



Вы не можете начинать темы
Вы не можете отвечать на сообщения
Вы не можете редактировать свои сообщения
Вы не можете удалять свои сообщения
Вы не можете голосовать в опросах
Вы не можете прикреплять файлы к сообщениям
Вы не можете скачивать файлы