Отчий дом / Babul (С.У. Санни / S.U. Sunny) [1950, Индия, Драма, DVDRip] VO (Nastia)

Ответить на тему
 
Автор Сообщение

user ®

Стаж: 12 лет

Сообщений: 15124

Пост Пост: #1 от 10-Сен-2013 18:10

[Цитировать]

Отчий дом / Babul
Страна: Индия
Жанр: Драма
Год выпуска: 1950
Продолжительность: 02:07:22
Перевод: Одноголосый закадровый Nastia
Cубтитры: нет
Режиссер: С.У. Санни / S.U. Sunny
В ролях: Наргис, Дилип Кумар, Амар, Манавар Султана, Х. Пахади, Винод, Ихмаил, Джанкидас
Описание: В молодого почмейстера Ашока (Дилип Кумар) влюбились две женщины: дочь богатого помещика Джамнадаса Уша (Манавар Султана) и дочь бывшего почмейстера Бела (Наргис). У Ашока и Уши общие интересы: любовь к музыке и изобразительному искусству. Но ревнивая Бела стремится разлучить влюбленных. Она уговаривает Ушу отказаться от Ашока и выйти замуж за другого мужчину. Обманутая Уша просит Ашока жениться на Беле, но можно ли построить свое счастье на чужом горе?..
Доп. информация: Релиз
Перевод: larisa_k (спасибо!)
Озвучка: Nastia (спасибо!)
Релиз и сведение аудио: керелис (спасибо!)
Сэмпл: http://multi-up.com/902031
Качество видео: DVDRip
Формат видео: AVI
Видео: DivX Codec 4.x, 640x480 (1.33:1), 23.976 fps, 1117 kbps avg
Аудио: MPEG Layer 3, 44.100 kHz, 2/0 (L,R) ch, 192.00 kbps avg

MediaInfo

General
Complete name : D:\Otchij.dom.1950.DVDRip.DivX.BWTorrents.avi
Format : AVI
Format/Info : Audio Video Interleave
Format profile : OpenDML
File size : 1.17 GiB
Duration : 2h 7mn
Overall bit rate : 1117 Kbps
Writing application : Lavf52.32.0
Video
ID : 0
Format : MPEG-4 Visual
Format profile : Simple@L1
Format settings, BVOP : No
Format settings, QPel : No
Format settings, GMC : No warppoints
Format settings, Matrix : Default (H.263)
Codec ID : DIVX
Codec ID/Info : Project Mayo
Codec ID/Hint : DivX 4
Duration : 2h 7mn
Bit rate : 942 Kbps
Width : 640 pixels
Height : 480 pixels
Display aspect ratio : 4/3
Frame rate : 23.976 fps
Resolution : 24 bits
Colorimetry : 4:2:0
Scan type : Progressive
Bits/(Pixel*Frame) : 0.058
Stream size : 1 010 MiB (84%)
Writing library : Lavc52.22.3
Audio
ID : 1
Format : MPEG Audio
Format version : Version 1
Format profile : Layer 3
Codec ID : 55
Codec ID/Hint : MP3
Duration : 2h 7mn
Bit rate mode : Constant
Bit rate : 192 Kbps
Channel(s) : 2 channels
Sampling rate : 44.1 KHz
Resolution : 16 bits
Stream size : 175 MiB (15%)
Alignment : Aligned on interleaves
Interleave, duration : 26 ms (0.63 video frame)
Interleave, preload duration : 52 ms

Скриншоты

Скачать

Скачать торрент! Отчий дом / Babul (С.У. Санни / S.U. Sunny) [1950, Индия, Драма, DVDRip] VO (Nastia)

Как скачивать? · Что такое торрент? · Рейтинг и ограничения

Сайт не распространяет и не хранит электронные версии произведений, а лишь предоставляет доступ к создаваемому пользователями каталогу ссылок на торрент-файлы, которые содержат только списки хеш-сумм

[Профиль] [ЛС]
Показать сообщения:    
Ответить на тему

Текущее время: Сегодня 20:49

Часовой пояс: GMT + 4



Вы не можете начинать темы
Вы не можете отвечать на сообщения
Вы не можете редактировать свои сообщения
Вы не можете удалять свои сообщения
Вы не можете голосовать в опросах
Вы не можете прикреплять файлы к сообщениям
Вы не можете скачивать файлы