Ночь Живых Мертвецов / Night Of The Living Dead (Том Савини / Tom Savini) [1990, США, Ужасы, BDRip 1080p] 2 х AVO (Ю.Живов, В.Дохалов) + VO (Jakob Bellmann) + Original Eng + Sub (Rus / Eng)

Ответить на тему
 
Автор Сообщение

user ®

Стаж: 7 лет 7 месяцев

Сообщений: 20008

Пост Пост: #1 от 10-Сен-2013 15:00

[Цитировать]

-Ночь Живых Мертвецов / Night Of The Living Dead-Страна: США
Жанр: Ужасы
Год выпуска: 1990
Продолжительность: 01:28:15-Перевод: Авторский (одноголосый закадровый) Юрий Живов
Перевод: Авторский (одноголосый закадровый) Вартан Дохалов
Перевод: Одноголосый закадровый Jakob Bellmann
Cубтитры: русские (x2), английские (SDH)
Оригинальная аудиодорожка: английский-Режиссёр: Том Савини / Tom Savini
В ролях: Тони Тодд, Патриция Таллман, Том Таулз, МакКи Андерсон, Уильям Батлер, Кэти Финнеран, Билл Моусли, Хезер Мазур, Дэвид В. Батлер, Захари Мотт-Описание:
Брат и сестра приезжают навестить могилу своей матушки на кладбище в окрестностях Питтсбурга. Брат пугает сестру рассказами о зомби, не подозревая о том, что он весьма недалёк от реальности. Внезапно на них набрасывается один из покойников; брата убивают, а Барбара убегает, обнаруживая по дороге фермерский дом. Через какое-то время к нему подъезжает Бен, в бензобаке машины которого кончился бензин. Они решают остаться в доме и готовиться к обороне. Позже выясняется, что в подвале дома прячутся ещё несколько человек. Все вместе они должны забаррикадироваться и переждать страшную ночь - ведь зомби не станут сидеть на крыльце и ждать, пока люди выйдут сами - они будут пытаться прорваться внутрь - желание отведать человеческого мяса в них безумно сильно.-Доп. информация:-Тип релиза: BDRip 1080p - СЭМПЛ
Контейнер: MKV
Видео: MPEG-4 AVC Video / 13.5 Mbps / 1920x1040p / 23,976 fps / 16:9 / High Profile 4.1
Аудио 1: Russian / DTS Audio / 5.1 / 48 kHz / 1509 kbps / 24-bit |Одноголосый закадровый, Ю.Живов|
Аудио 2: Russian / DTS Audio / 5.1 / 48 kHz / 1509 kbps / 24-bit |Одноголосый закадровый, В.Дохалов|
Аудио 3: Russian / Dolby Digital Audio 5.1 / 48 kHz / 448 kbps |Одноголосый закадровый, Jakob Bellmann|
Аудио 4: English / DTS Audio / 5.1 / 48 kHz / 1509 kbps / 24-bit

MI

General
Complete name                    : X:\  -= Фильмы =-\Ночь живых мертвецов (1990. Night of the Living Dead).mkv
Format                           : Matroska
File size                        : 11.4 GiB
Duration                         : 1h 28mn
Overall bit rate                 : 18.5 Mbps
Movie name                       : Release for RuTracker
Encoded date                     : UTC 2013-09-08 05:20:20
Writing application              : mkvmerge v4.9.1 ('Ich will') сборка от Jul 11 2011 23:53:15
Writing library                  : libebml v1.2.1 + libmatroska v1.1.1
Video
ID                               : 1
Format                           : AVC
Format/Info                      : Advanced Video Codec
Format profile                   : High@L4.1
Format settings, CABAC           : Yes
Format settings, ReFrames        : 4 frames
Muxing mode                      : Container profile=Unknown@4.1
Codec ID                         : V_MPEG4/ISO/AVC
Duration                         : 1h 28mn
Bit rate                         : 13.5 Mbps
Width                            : 1 920 pixels
Height                           : 1 040 pixels
Display aspect ratio             : 16:9
Frame rate                       : 23.976 fps
Color space                      : YUV
Chroma subsampling               : 4:2:0
Bit depth                        : 8 bits
Scan type                        : Progressive
Bits/(Pixel*Frame)               : 0.282
Stream size                      : 8.10 GiB (71%)
Title                            : Night.Of.The.Living.Dead.1990.1080p.BluRay.DTS.x264.D-Z0N3
Writing library                  : x264 core 128 r2216 198a7ea
Encoding settings                : cabac=1 / ref=4 / deblock=1:-3:-3 / analyse=0x3:0x113 / me=umh / subme=11 / psy=1 / psy_rd=1.10:0.20 / mixed_ref=1 / me_range=48 / chroma_me=1 / trellis=2 / 8x8dct=1 / cqm=0 / deadzone=21,11 / fast_pskip=0 / chroma_qp_offset=-3 / threads=6 / lookahead_threads=1 / sliced_threads=0 / nr=0 / decimate=0 / interlaced=0 / bluray_compat=0 / constrained_intra=0 / bframes=12 / b_pyramid=2 / b_adapt=2 / b_bias=0 / direct=3 / weightb=1 / open_gop=0 / weightp=2 / keyint=240 / keyint_min=23 / scenecut=40 / intra_refresh=0 / rc_lookahead=240 / rc=2pass / mbtree=1 / bitrate=13500 / ratetol=1.0 / qcomp=0.70 / qpmin=0 / qpmax=69 / qpstep=4 / cplxblur=20.0 / qblur=0.5 / vbv_maxrate=38000 / vbv_bufsize=30000 / nal_hrd=none / ip_ratio=1.40 / aq=1:1.00
Language                         : English
Audio #1
ID                               : 2
Format                           : DTS
Format/Info                      : Digital Theater Systems
Codec ID                         : A_DTS
Duration                         : 1h 28mn
Bit rate mode                    : Constant
Bit rate                         : 1 510 Kbps
Channel(s)                       : 6 channels
Channel positions                : Front: L C R, Side: L R, LFE
Sampling rate                    : 48.0 KHz
Bit depth                        : 24 bits
Stream size                      : 953 MiB (8%)
Title                            : Юрий Живов
Language                         : Russian
Audio #2
ID                               : 3
Format                           : DTS
Format/Info                      : Digital Theater Systems
Codec ID                         : A_DTS
Duration                         : 1h 28mn
Bit rate mode                    : Constant
Bit rate                         : 1 510 Kbps
Channel(s)                       : 6 channels
Channel positions                : Front: L C R, Side: L R, LFE
Sampling rate                    : 48.0 KHz
Bit depth                        : 24 bits
Stream size                      : 953 MiB (8%)
Title                            : Вартан Дохалов
Language                         : Russian
Audio #3
ID                               : 4
Format                           : AC-3
Format/Info                      : Audio Coding 3
Mode extension                   : CM (complete main)
Codec ID                         : A_AC3
Duration                         : 1h 28mn
Bit rate mode                    : Constant
Bit rate                         : 448 Kbps
Channel(s)                       : 6 channels
Channel positions                : Front: L C R, Side: L R, LFE
Sampling rate                    : 48.0 KHz
Bit depth                        : 16 bits
Stream size                      : 283 MiB (2%)
Title                            : Jakob Bellmann
Language                         : Russian
Audio #4
ID                               : 5
Format                           : DTS
Format/Info                      : Digital Theater Systems
Codec ID                         : A_DTS
Duration                         : 1h 28mn
Bit rate mode                    : Constant
Bit rate                         : 1 510 Kbps
Channel(s)                       : 6 channels
Channel positions                : Front: L C R, Side: L R, LFE
Sampling rate                    : 48.0 KHz
Bit depth                        : 24 bits
Stream size                      : 953 MiB (8%)
Language                         : English
Text #1
ID                               : 6
Format                           : UTF-8
Codec ID                         : S_TEXT/UTF8
Codec ID/Info                    : UTF-8 Plain Text
Title                            : Stevvie
Language                         : Russian
Text #2
ID                               : 7
Format                           : UTF-8
Codec ID                         : S_TEXT/UTF8
Codec ID/Info                    : UTF-8 Plain Text
Title                            : v2
Language                         : Russian
Text #3
ID                               : 8
Format                           : UTF-8
Codec ID                         : S_TEXT/UTF8
Codec ID/Info                    : UTF-8 Plain Text
Language                         : English
Menu
00:00:00.000                     : en:Opening Title
00:03:10.939                     : en:Grave Situation
00:08:25.630                     : en:Uncle Rege's House
00:11:12.135                     : en:Ben
00:16:43.444                     : en:Yard Clean-Up
00:18:06.769                     : en:"Fight!"
00:20:03.452                     : en:Trash Talk
00:22:55.531                     : en:Hell On Earth
00:25:22.798                     : en:Gun Search
00:27:50.043                     : en:Tom & Harry
00:35:08.060                     : en:In The Cellar
00:37:06.891                     : en:Barricades
00:42:45.124                     : en:EBS
00:44:05.226                     : en:"Open This Door!"
00:47:02.132                     : en:Bitten
00:49:33.316                     : en:Mr. Magruder
00:51:55.883                     : en:"Is He Dead?"
00:54:38.251                     : en:New Report
00:57:30.691                     : en:Key Search
01:00:06.907                     : en:Going For Gas
01:04:06.154                     : en:Tom Blows It
01:06:12.943                     : en:Sarah
01:06:52.507                     : en:"I Want That Gun."
01:09:10.053                     : en:"Shoot It."
01:16:09.995                     : en:Last Laugh
01:19:48.629                     : en:Having Fun
01:22:07.318                     : en:Too Late
01:23:01.647                     : en:Another For The Fire
01:25:07.978                     : en:Credits

Скриншоты


  • Видеоряд от D-Z0N3
  • Сохранены оригинальные чаптеры как на Blu-ray.
  • За русские дорожки и субтитры спасибо Diablo
  • Дорожка №1,2 получены наложением чистого голоса на центр декодированного DTS-HD MA.
  • Дорожка с озвучкой Jakob Bellmann собрана в простой ac3, чтобы не раздувать объем. Вряд ли на этот перевод найдется много ценителей.
Скачать

Скачать торрент!

Как скачивать? · Что такое торрент? · Рейтинг и ограничения

Сайт не распространяет и не хранит электронные версии произведений, а лишь предоставляет доступ к создаваемому пользователями каталогу ссылок на торрент-файлы, которые содержат только списки хеш-сумм

[Профиль] [ЛС]
Показать сообщения:    
Ответить на тему

Текущее время: Сегодня 05:08

Часовой пояс: GMT + 4



Вы не можете начинать темы
Вы не можете отвечать на сообщения
Вы не можете редактировать свои сообщения
Вы не можете удалять свои сообщения
Вы не можете голосовать в опросах
Вы не можете прикреплять файлы к сообщениям
Вы не можете скачивать файлы