Стартрек: Возмездие / Star Trek Into Darkness (Джей Джей Абрамс / J.J. Abrams) [2013, США, Фантастика, боевик, приключения, BDRip] Dub

Ответить на тему
 
Автор Сообщение

user ®

Стаж: 7 лет 7 месяцев

Сообщений: 20008

Пост Пост: #1 от 10-Сен-2013 15:00

[Цитировать]

-Стартрек: Возмездие / Star Trek Into Darkness- Год выпуска: 2013
Выпущено: США / Paramount Pictures, Skydance Productions, Bad Robot
Жанр: фантастика, боевик, приключения
Продолжительность: 02:12:05
Перевод: Профессиональный (полное дублирование) Кинотеатральный дубляж
Cубтитры: нет-Режиссер:
Джей Джей Абрамс / J.J. Abrams-В ролях:
Крис Пайн (Kirk), Закари Куинто (Spock), Бенедикт Камбербэтч (John Harrison), Саймон Пегг (Scotty), Карл Урбан (Bones), Зои Салдана (Uhura), Элис Ив (Carol), Джон Чо (Sulu), Антон Ельчин (Chekov), Питер Уэллер (Marcus), Брюс Гринвуд (Pike), Леонард Нимой (Spock Prime), Ноэль Кларк (Thomas Harewood)-Описание:
Вернувшись на Землю, команда корабля «Энтерпрайз» обнаруживает, что деятельность и принципы их организации подорваны изнутри. Флот скован необъяснимым ужасом и бездействует, пока мир все глубже погружается в бездну. Капитан Кирк берет на себя руководство операцией по поимке злодея, ответственного за этот хаос и способного уничтожить все человечество. В запутанной игре не на жизнь, а на смерть, любовь и дружба будут принесены в жертву ради единственного, что осталось у Кирка — его команды.-IMDB | КиноПоиск | Сэмпл |-Качество: BDRip [Star.Trek.Into.Darkness.2013.1080p.BluRay.AVC.TrueHD.7.1-PublicHD]
Формат: AVI
Видео: 720x304 (2.37:1), 23.976 fps, XviD build 73 ~1906 kbps avg, 0.36 bit/pixel
Аудио: 48 kHz, AC3 Dolby Digital, 3/2 (L,C,R,l,r) + LFE ch, ~384.00 kbps avg - iTunes Russia
-

Скриншоты

MediaInfo

General
      Complete name : C:\Фильмы\Star_Trek_Vozmezdie_2013_BDRip_iTunes_by_Dalemake.avi
      Format : AVI
      Format/Info : Audio Video Interleave
      Format profile : OpenDML
      File size : 2.12 GiB
      Duration : 2h 12mn
      Overall bit rate : 2 297 Kbps
      Writing application : VirtualDubMod 1.5.10.3 | www.virtualdub-fr.org || (build 2550/release)
      Writing library : VirtualDubMod build 2550/release
   Video
      Format : MPEG-4 Visual
      Format profile : Streaming Video@L1
      Format settings, BVOP : Yes
      Format settings, QPel : No
      Format settings, GMC : No warppoints
      Format settings, Matrix : Custom
      Codec ID : XVID
      Codec ID/Hint : XviD
      Duration : 2h 12mn
      Bit rate : 1 901 Kbps
      Width : 720 pixels
      Height : 304 pixels
      Display aspect ratio : 2.35
      Frame rate : 23.976 fps
      Resolution : 24 bits
      Colorimetry : 4:2:0
      Scan type : Progressive
      Bits/(Pixel*Frame) : 0.362
      Stream size : 1.75 GiB (83%)
      Writing library : XviD 73
   Audio
      Format : AC-3
      Format/Info : Audio Coding 3
      Codec ID : 2000
      Duration : 2h 12mn
      Bit rate mode : Constant
      Bit rate : 384 Kbps
      Channel(s) : 6 channels
      Channel positions : Front: L C R, Surround: L R, LFE
      Sampling rate : 48.0 KHz
      Stream size : 363 MiB (17%)
      Alignment : Split accross interleaves
      Interleave, duration : 42 ms (1.00 video frame)
      Interleave, preload duration : 500 ms
-
Скачать

Скачать торрент!

Как скачивать? · Что такое торрент? · Рейтинг и ограничения

Сайт не распространяет и не хранит электронные версии произведений, а лишь предоставляет доступ к создаваемому пользователями каталогу ссылок на торрент-файлы, которые содержат только списки хеш-сумм

[Профиль] [ЛС]
Показать сообщения:    
Ответить на тему

Текущее время: Сегодня 05:05

Часовой пояс: GMT + 4



Вы не можете начинать темы
Вы не можете отвечать на сообщения
Вы не можете редактировать свои сообщения
Вы не можете удалять свои сообщения
Вы не можете голосовать в опросах
Вы не можете прикреплять файлы к сообщениям
Вы не можете скачивать файлы