Влюбленная душа / Душа / Неблагодарность / Bewafa (М.Л. Ананд / M.L. Anand) [1952, Индия, Mелодрама, DVDRip] MVO (Red Media)

Ответить на тему
 
Автор Сообщение

user ®

Стаж: 12 лет

Сообщений: 15125

Пост Пост: #1 от 10-Сен-2013 08:40

[Цитировать]

Влюбленная душа / Неблагодарность / Bewafa -Страна: Индия
Жанр: Мелодрама
Год выпуска: 1952
Продолжительность: 01:52:07-Перевод: Профессиональный (многоголосый закадровый) - Red Media
Cубтитры: нет--Режиссер: М.Л. Ананд / M.L. Anand-В ролях: Наргис, Радж Капур, Ашок Кумар, Нилам, Сиддикуи, Сибил, Бхудо Адвани, Гхош, Низам, Шил--Описание: Рупа жила в трущобах с дядей-алкоголиком , который сидел дома, заставлял ее искать работу и покупать ему алкоголь. Обычно сосед по имени Радж приходил ей на помощь и давал ей в долг немного денег. Но однажды случилось так, что Раджа не было дома, а дядя жестоко избил ее и выбросил вон из дома. Она идет к морю, чтобы утопиться, но волны не принимают ее. Рупа засыпает под фонарным столбом, а когда просыпается - видит, что ее рисует какой-то человек. Это художник Ашок, он просит ее позировать ему. Вскоре они становятся друзьями, она даже живет в его роскошном доме, их картины приносят хороший доход. Но однажды Радж вновь возникает в ее жизни, и ей кажется, что прошлое вернулось.-- | Кинопоиск--Качество видео: DVDRip
Исходник: DVD5 R1
Формат видео: AVI-Видео: XVID, 624x480, 23.976 fps, 1722 Kbps
Аудио: MP3, 44.1 Hz, 2ch, 128Kbps--Риппер, синхронизация звука: soso4eg--- -
-

Скриншот с названием


-

Скриншоты


-

MI

Общее
Полное имя : D:\[Релизы]\[DVDRip]\Bewafa1952.DVDRip.XviD-soso4eg.avi
Формат : AVI
Формат/Информация : Audio Video Interleave
Размер файла : 1,46 Гбайт
Продолжительность : 1 ч. 52 м.
Общий поток : 1859 Кбит/сек
Название фильма : Bewafa1952.DVDRip.XviD-soso4eg
Режиссёр : soso4eg
Программа кодирования : VirtualDubMod 1.5.10.3 | www.virtualdub-fr.org || (build 2550/release)
Правообладатель : ***
Видео
Идентификатор : 0
Формат : MPEG-4 Visual
Профиль формата : Advanced Simple@L5
Параметр BVOP формата : 2
Параметр QPel формата : Нет
Параметр GMC формата : Без точки перехода
Параметр матрицы формата : Default (H.263)
Идентификатор кодека : XVID
Идентификатор кодека/Подсказка : XviD
Продолжительность : 1 ч. 52 м.
Битрейт : 1722 Кбит/сек
Ширина : 624 пикселя
Высота : 480 пикселей
Соотношение сторон : 4:3
Частота кадров : 23,976 кадра/сек
Цветовое пространство : YUV
Субдискретизация насыщенности : 4:2:0
Битовая глубина : 8 бит
Тип развёртки : Прогрессивная
Метод сжатия : С потерями
Бит/(Пиксели*Кадры) : 0.240
Размер потока : 1,35 Гбайт (93%)
Библиотека кодирования : XviD 1.2.1 (UTC 2008-12-04)
Аудио
Идентификатор : 1
Формат : MPEG Audio
Версия формата : Version 1
Профиль формата : Layer 3
Режим : Joint stereo
Расширение режима : MS Stereo
Идентификатор кодека : 55
Идентификатор кодека/Подсказка : MP3
Продолжительность : 1 ч. 52 м.
Вид битрейта : Постоянный
Битрейт : 128 Кбит/сек
Каналы : 2 канала
Частота : 44,1 КГц
Метод сжатия : С потерями
Размер потока : 103 Мбайт (7%)
Выравнивание : Разделение по промежуткам
Продолжительность промежутка : 42 мс. (1,00 видеокадр)
Время предзагрузки промежутка : 500 мс.

-
-
Скачать

Скачать торрент! Влюбленная душа / Душа / Неблагодарность / Bewafa (М.Л. Ананд / M.L. Anand) [1952, Индия, Mелодрама, DVDRip] MVO (Red Media)

Как скачивать? · Что такое торрент? · Рейтинг и ограничения

Сайт не распространяет и не хранит электронные версии произведений, а лишь предоставляет доступ к создаваемому пользователями каталогу ссылок на торрент-файлы, которые содержат только списки хеш-сумм

[Профиль] [ЛС]
Показать сообщения:    
Ответить на тему

Текущее время: Сегодня 01:02

Часовой пояс: GMT + 4



Вы не можете начинать темы
Вы не можете отвечать на сообщения
Вы не можете редактировать свои сообщения
Вы не можете удалять свои сообщения
Вы не можете голосовать в опросах
Вы не можете прикреплять файлы к сообщениям
Вы не можете скачивать файлы