Я плюю на ваши могилы 2 / I Spit On Your Grave 2 (Стивен Р. Монро / Steven R. Monroe) [2013, США, ужасы, триллер, криминал, BDRip-AVC] [UNRATED] VO (den904) + Original (Eng) + Sub (Eng)

Ответить на тему
 
Автор Сообщение

user ®

Стаж: 7 лет 7 месяцев

Сообщений: 20008

Пост Пост: #1 от 10-Сен-2013 08:40

[Цитировать]

Я плюю на ваши могилы 2 / I Spit On Your Grave 2
Страна: США
Жанр: ужасы, триллер, криминал
Год выпуска: 2013
Продолжительность: 01:46:11
Перевод: Одноголосый закадровый - den904, перевод на русский язык - МЕГАПЫХАРЬ
Оригинальная аудиодорожка: английский
Cубтитры: английские (полные)-Режиссер:Стивен Р. Монро / Steven R. Monroe
В ролях: Джемма Даллендер (Katie), Джо Эбсолом (Ivan), Явор Бахаров (Georgy), Александр Алексеев (Nick), Мэри Стокли (Ana), Майкл Диксон (Jayson), Валентин Пелка (Father Dimov), Питер Сильверлиф (Valko), Георг Златарев (Kiril)
Описание: Красавица Кэти только что переехала в Нью-Йорк, чтобы сделать карьеру модели. Но девичьи мечты о роскошной жизни разбиваются: ее насилуют, пытают, а вскоре похищают и увозят в непонятном направлении. Кэти оказывается одна в чужой стране, где ее почти что похоронят заживо. Чудом избежав смерти, девушка решает жестоко отомстить обидчикам…-СЭМПЛ
Тип релиза: BDRip-AVC
Исходник: I.Spit.On.Your.Grave.2.2013.UNRATED.1080p.BluRay.AVC.TrueHD.5.1-PublicHD
Контейнер: MKV
Видео: 1152x480p / 23.976 fps / 2.40:1 / High Profile 4.1 / AVC / ~ 2304 Kbps
Аудио 1: AC3 / 192 Kbps / 2.0 / 48 kHz / Russian / VO
Аудио 2: AC3 / 448 Kbps / 5.1 / 48 kHz / English / original
Формат субтитров: softsub (SRT)-IMDB * КиноПоиск-Внимание: русская озвучка содержит ненормативную лексику!

MediaInfo / x264 log

General
Complete name : I.Spit.On.Your.Grave-2.2013.BDRip-AVC.VO.mkv
Format : Matroska
Format version : Version 2
File size : 2.18 GiB
Duration : 1h 46mn
Overall bit rate : 2 943 Kbps
Encoded date : UTC 2013-09-09 19:52:32
Writing application : mkvmerge v5.8.0 ('No Sleep / Pillow') built on Sep 2 2012 15:37:04
Writing library : libebml v1.2.3 + libmatroska v1.3.0
Video
ID : 1
Format : AVC
Format/Info : Advanced Video Codec
Format profile : High@L4.1
Format settings, CABAC : Yes
Format settings, ReFrames : 12 frames
Codec ID : V_MPEG4/ISO/AVC
Duration : 1h 46mn
Bit rate : 2 304 Kbps
Width : 1 152 pixels
Height : 480 pixels
Display aspect ratio : 2.40:1
Frame rate mode : Constant
Frame rate : 23.976 fps
Color space : YUV
Chroma subsampling : 4:2:0
Bit depth : 8 bits
Scan type : Progressive
Bits/(Pixel*Frame) : 0.174
Stream size : 1.67 GiB (76%)
Title : I Spit On Your Grave-2 2013
Writing library : x264 core 135 r2345 f0c1c53
Encoding settings : cabac=1 / ref=12 / deblock=1:-3:-3 / analyse=0x3:0x113 / me=umh / subme=11 / psy=1 / psy_rd=1.10:0.00 / mixed_ref=1 / me_range=24 / chroma_me=1 / trellis=2 / 8x8dct=1 / cqm=0 / deadzone=21,11 / fast_pskip=1 / chroma_qp_offset=-2 / threads=6 / lookahead_threads=1 / sliced_threads=0 / nr=0 / decimate=1 / interlaced=0 / bluray_compat=0 / constrained_intra=0 / bframes=9 / b_pyramid=2 / b_adapt=2 / b_bias=0 / direct=3 / weightb=1 / open_gop=0 / weightp=2 / keyint=250 / keyint_min=23 / scenecut=40 / intra_refresh=0 / rc_lookahead=60 / rc=2pass / mbtree=1 / bitrate=2304 / ratetol=1.0 / qcomp=0.60 / qpmin=0 / qpmax=69 / qpstep=4 / cplxblur=20.0 / qblur=0.5 / ip_ratio=1.40 / aq=1:0.80
Default : Yes
Forced : No
Audio #1
ID : 2
Format : AC-3
Format/Info : Audio Coding 3
Mode extension : CM (complete main)
Format settings, Endianness : Big
Codec ID : A_AC3
Duration : 1h 46mn
Bit rate mode : Constant
Bit rate : 192 Kbps
Channel(s) : 2 channels
Channel positions : Front: L R
Sampling rate : 48.0 KHz
Bit depth : 16 bits
Compression mode : Lossy
Stream size : 146 MiB (7%)
Title : RUS AC3 192 Kbps 2 ch VO den904
Language : Russian
Default : Yes
Forced : No
Audio #2
ID : 3
Format : AC-3
Format/Info : Audio Coding 3
Mode extension : CM (complete main)
Format settings, Endianness : Big
Codec ID : A_AC3
Duration : 1h 46mn
Bit rate mode : Constant
Bit rate : 448 Kbps
Channel(s) : 6 channels
Channel positions : Front: L C R, Side: L R, LFE
Sampling rate : 48.0 KHz
Bit depth : 16 bits
Compression mode : Lossy
Stream size : 340 MiB (15%)
Title : ENG AC3 448 Kbps 6 ch original
Language : English
Default : No
Forced : No
Text
ID : 4
Format : UTF-8
Codec ID : S_TEXT/UTF8
Codec ID/Info : UTF-8 Plain Text
Title : Subtitles ENG Full
Language : English
Default : No
Forced : No
Menu
00:00:00.000 : :Chapter 01
00:07:11.056 : :Chapter 02
00:15:08.491 : :Chapter 03
00:24:16.455 : :Chapter 04
00:36:33.108 : :Chapter 05
00:46:44.844 : :Chapter 06
00:59:19.306 : :Chapter 07
01:11:52.683 : :Chapter 08
01:17:31.981 : :Chapter 09
01:23:12.112 : :Chapter 10
01:29:12.430 : :Chapter 11
01:42:08.205 : :Chapter 12-x264 [info]: frame I:1185 Avg QP:11.99 size: 87731
x264 [info]: frame P:36470 Avg QP:15.55 size: 26358
x264 [info]: frame B:115105 Avg QP:19.09 size: 6669
x264 [info]: consecutive B-frames: 4.0% 5.5% 9.5% 18.9% 16.3% 24.4% 7.2% 7.8% 2.9% 3.5%

Скриншот с названием

Скриншоты



Скачать

Скачать торрент!

Как скачивать? · Что такое торрент? · Рейтинг и ограничения

Сайт не распространяет и не хранит электронные версии произведений, а лишь предоставляет доступ к создаваемому пользователями каталогу ссылок на торрент-файлы, которые содержат только списки хеш-сумм

[Профиль] [ЛС]
Показать сообщения:    
Ответить на тему

Текущее время: Сегодня 00:40

Часовой пояс: GMT + 4



Вы не можете начинать темы
Вы не можете отвечать на сообщения
Вы не можете редактировать свои сообщения
Вы не можете удалять свои сообщения
Вы не можете голосовать в опросах
Вы не можете прикреплять файлы к сообщениям
Вы не можете скачивать файлы