Карма / Karm (Б.Р. Чопра / B.R. Chopra) [1977, Индия, Мелодрама, DVDRip] VO

Ответить на тему
 
Автор Сообщение

user ®

Стаж: 12 лет

Сообщений: 15124

Пост Пост: #1 от 10-Сен-2013 02:25

[Цитировать]

Карма / Karm -Страна: Индия
Жанр: Мелодрама
Год выпуска: 1977
Продолжительность: 02:25:00-Перевод: Одноголосый закадровый
Cубтитры: нет--Режиссер: Б.Р. Чопра / B.R. Chopra-В ролях: Раджеш Кханна, Видья Синха, Шабана Азми--Описание:"Карма" - это рассказ о противодействии между человеком и его судьбой.
Любовь Арвинда, обычного, ничем не примечательного парня и Аши, высокодуховной девушки, под угрозой - ведь отец Аши, признанный астролог, предсказал смерть своей дочери в канун свадьбы, в случае ее брака с Арвиндом. Но влюбленные решают обмануть злую судьбу...-- | Кинопоиск--Качество видео: DVDRip
Исходник: DVD9 R1
Формат видео: AVI-Видео: XVID, 592x448, 23.976 fps, 1300 Kbps
Аудио: MP3, 44.1 Hz, 2ch, 128Kbps--Риппер, синхронизация звука: soso4eg-Спасибо Виолетте за исходный русский звук =)-- -
-

Скриншоты


-

MI

Общее
Полное имя : C:\INDIYA\[Релизы]\Karma.1977.DVDRip.XviD-soso4eg.avi
Формат : AVI
Формат/Информация : Audio Video Interleave
Размер файла : 1,46 Гбайт
Продолжительность : 2 ч. 25 м.
Общий поток : 1437 Кбит/сек
Название фильма : Karma.1977.DVDRip.XviD-soso4eg
Программа кодирования : VirtualDubMod 1.5.10.3 | www.virtualdub-fr.org || (build 2550/release)
Видео
Идентификатор : 0
Формат : MPEG-4 Visual
Профиль формата : Advanced Simple@L5
Параметр BVOP формата : 1
Параметр QPel формата : Нет
Параметр GMC формата : Без точки перехода
Параметр матрицы формата : Default (H.263)
Идентификатор кодека : XVID
Идентификатор кодека/Подсказка : XviD
Продолжительность : 2 ч. 25 м.
Битрейт : 1300 Кбит/сек
Ширина : 592 пикселя
Высота : 448 пикселей
Соотношение сторон : 4:3
Частота кадров : 23,976 кадра/сек
Цветовое пространство : YUV
Субдискретизация насыщенности : 4:2:0
Битовая глубина : 8 бит
Тип развёртки : Прогрессивная
Метод сжатия : С потерями
Бит/(Пиксели*Кадры) : 0.204
Размер потока : 1,32 Гбайт (90%)
Библиотека кодирования : XviD 1.2.1 (UTC 2008-12-04)
Аудио
Идентификатор : 1
Формат : MPEG Audio
Версия формата : Version 1
Профиль формата : Layer 3
Идентификатор кодека : 55
Идентификатор кодека/Подсказка : MP3
Продолжительность : 2 ч. 25 м.
Вид битрейта : Постоянный
Битрейт : 128 Кбит/сек
Каналы : 2 канала
Частота : 44,1 КГц
Метод сжатия : С потерями
Размер потока : 133 Мбайт (9%)
Выравнивание : Разделение по промежуткам
Продолжительность промежутка : 42 мс. (1,00 видеокадр)
Время предзагрузки промежутка : 500 мс.

-
-
Скачать

Скачать торрент! Карма / Karm (Б.Р. Чопра / B.R. Chopra) [1977, Индия, Мелодрама, DVDRip] VO

Как скачивать? · Что такое торрент? · Рейтинг и ограничения

Сайт не распространяет и не хранит электронные версии произведений, а лишь предоставляет доступ к создаваемому пользователями каталогу ссылок на торрент-файлы, которые содержат только списки хеш-сумм

[Профиль] [ЛС]
Показать сообщения:    
Ответить на тему

Текущее время: Сегодня 13:19

Часовой пояс: GMT + 4



Вы не можете начинать темы
Вы не можете отвечать на сообщения
Вы не можете редактировать свои сообщения
Вы не можете удалять свои сообщения
Вы не можете голосовать в опросах
Вы не можете прикреплять файлы к сообщениям
Вы не можете скачивать файлы