Все о Бенджаминах / All About the Benjamins (Кевин Брэй / Kevin Bray) [2002, США, Германия, боевик, триллер, комедия, криминал, WEB-DL 720p] MVO (R5) + Original + subs (Rus, Eng)

Ответить на тему
 
Автор Сообщение

user ®

Стаж: 7 лет 7 месяцев

Сообщений: 20008

Пост Пост: #1 от 10-Сен-2013 02:25

[Цитировать]

Все о Бенджаминах / All About the Benjamins- Год выпуска: 2002
Страна: США, Германия
Жанр: боевик, триллер, комедия, криминал
Продолжительность: 01:37:39
Перевод: Профессиональный (многоголосый, закадровый) R5
Оригинальная звуковая дорожка: английский
Cубтитры: English, Russian-Режиссер: Кевин Брэй / Kevin Bray
В ролях: Айс Кьюб, Майк Эппс, Томми Флэнаган, Кармен Чаплин, Ева Мендес, Валери Рэй Миллер, Энтони Джиаймо, Джефф Чейз, Роджер Гуэнвёр Смит, Джино Сальвано
О фильме: Айс Кьюб и Майк Эппс - герои захватывающего комедийного боевика. Один - профессиональный «охотник за головами», другой - никудышный мошенник. Ну а если добавить в этот коктейль неудачную кражу бриллиантов и потерю выигрышного лотерейного билета, то вам станет ясно «Все о Бенджаминах».-Релиз: by kuku5hka
Формат: MKV
Видео: 1280x528 at 23.976 fps, MPEG-4 AVC, ~4000 kbps avg
Аудио #1: Russian: 48 kHz, AC3, 3/2 (L,C,R,l,r) + LFE ch, ~384 kbps avg |Многоголосый закадровый, R5|
Аудио #2: English: 48 kHz, AC3, 3/2 (L,C,R,l,r) + LFE ch, ~448 kbps avg |R1|
Семпл-

Скриншоты


-

mInfo


Формат : Matroska
Версия формата : Version 4 / Version 2
Размер файла : 3,35 Гбайт
Продолжительность : 1 ч. 37 м.
Общий поток : 4906 Кбит/сек
Дата кодирования : UTC 2013-09-08 11:43:03
Программа кодирования : mkvmerge v6.1.0 ('Old Devil') built on Mar 2 2013 14:32:37
Библиотека кодирования : libebml v1.3.0 + libmatroska v1.4.0
Видео
Идентификатор : 1
Формат : AVC
Формат/Информация : Advanced Video Codec
Профиль формата : Main@L3.1
Параметр CABAC формата : Нет
Параметр ReFrames формата : 2 кадра
Идентификатор кодека : V_MPEG4/ISO/AVC
Продолжительность : 1 ч. 37 м.
Битрейт : 3976 Кбит/сек
Ширина : 1280 пикселей
Высота : 528 пикселей
Соотношение сторон : 2,40:1
Режим частоты кадров : Постоянный
Частота кадров : 23,976 кадра/сек
Цветовое пространство : YUV
Субдискретизация насыщенности : 4:2:0
Битовая глубина : 8 бит
Тип развёртки : Прогрессивная
Бит/(Пиксели*Кадры) : 0.245
Размер потока : 2,71 Гбайт (81%)
Язык : English
Default : Да
Forced : Нет
Основные цвета : BT.709
Характеристики трансфера : BT.709
Коэффициенты матрицы : BT.709
Аудио #1
Идентификатор : 2
Формат : AC-3
Формат/Информация : Audio Coding 3
Расширение режима : CM (complete main)
Параметр Endianness формата : Big
Идентификатор кодека : A_AC3
Продолжительность : 1 ч. 37 м.
Вид битрейта : Постоянный
Битрейт : 384 Кбит/сек
Каналы : 6 каналов
Расположение каналов : Front: L C R, Side: L R, LFE
Частота : 48,0 КГц
Битовая глубина : 16 бит
Метод сжатия : С потерями
Размер потока : 268 Мбайт (8%)
Заголовок : MVO R5 AC3 5.1 384 kbps
Язык : Russian
Default : Да
Forced : Нет
Аудио #2
Идентификатор : 3
Формат : AC-3
Формат/Информация : Audio Coding 3
Расширение режима : CM (complete main)
Параметр Endianness формата : Big
Идентификатор кодека : A_AC3
Продолжительность : 1 ч. 37 м.
Вид битрейта : Постоянный
Битрейт : 448 Кбит/сек
Каналы : 6 каналов
Расположение каналов : Front: L C R, Side: L R, LFE
Частота : 48,0 КГц
Битовая глубина : 16 бит
Метод сжатия : С потерями
Размер потока : 313 Мбайт (9%)
Заголовок : R1 AC3 5.1 448 kbps
Язык : English
Default : Нет
Forced : Нет
Текст #1
Идентификатор : 4
Формат : UTF-8
Идентификатор кодека : S_TEXT/UTF8
Идентификатор кодека/Информация : UTF-8 Plain Text
Язык : English
Default : Нет
Forced : Нет
Текст #2
Идентификатор : 5
Формат : UTF-8
Идентификатор кодека : S_TEXT/UTF8
Идентификатор кодека/Информация : UTF-8 Plain Text
Язык : Russian
Default : Нет
Forced : Нет
Меню
00:00:00.000 : en:You're Going to Jail
00:03:58.000 : en:Main Title
00:05:39.000 : en:Money to Be Made
00:09:28.000 : en:The Preferred Shopper
00:12:38.000 : en:Hunting Reggie
00:15:30.000 : en:Mr. Barcley's Photo Session
00:18:28.000 : en:Twenty Fake Million
00:23:26.000 : en:Money for Nothing
00:25:52.000 : en:Lucky Numbers
00:30:18.000 : en:Blinded by the Light
00:32:40.000 : en:Bucum's Bounty
00:35:11.000 : en:An Unreal Partnership
00:39:00.000 : en:Playing Dead
00:42:39.000 : en:The Interrogation
00:46:13.000 : en:Boat Buyer
00:49:21.000 : en:The Wallet or the Diamonds?
00:53:36.000 : en:Okay, We're Partners
00:57:42.000 : en:Barcley's Hidden Treasures
01:03:40.000 : en:Fishing for Diamonds
01:06:08.000 : en:Getting Back Gina
01:09:11.000 : en:The Set-up
01:10:20.000 : en:The Exchange
01:15:31.000 : en:Chase First, Talk Later
01:19:47.000 : en:Getting Their Cuts
01:23:58.000 : en:Girlie Action
01:26:19.000 : en:Speedboat Justice
01:30:10.000 : en:His Ship Coming In
01:33:30.000 : en:End Credits
-
Скачать

Скачать торрент!

Как скачивать? · Что такое торрент? · Рейтинг и ограничения

Сайт не распространяет и не хранит электронные версии произведений, а лишь предоставляет доступ к создаваемому пользователями каталогу ссылок на торрент-файлы, которые содержат только списки хеш-сумм

[Профиль] [ЛС]
Показать сообщения:    
Ответить на тему

Текущее время: Сегодня 06:31

Часовой пояс: GMT + 4



Вы не можете начинать темы
Вы не можете отвечать на сообщения
Вы не можете редактировать свои сообщения
Вы не можете удалять свои сообщения
Вы не можете голосовать в опросах
Вы не можете прикреплять файлы к сообщениям
Вы не можете скачивать файлы