Проект «Динозавр» / The Dinosaur Project (Сид Беннетт / Sid Bennett ) [2012, ЮАР, Великобритания, фантастика, триллер, приключения, HDTV 1080i] Dub

Ответить на тему
 
Автор Сообщение

user ®

Стаж: 7 лет 7 месяцев

Сообщений: 20008

Пост Пост: #1 от 10-Сен-2013 02:25

[Цитировать]

Проект «Динозавр» / The Dinosaur Project Страна: ЮАР, Великобритания
Студия: Moonlighting Films
Жанр: фантастика, триллер, приключения
Год выпуска: 2012
Продолжительность: 01:19:26
Перевод: Профессиональный (дублированный)
Cубтитры: нет
Оригинальная аудиодорожка: английский
Режиссер: Сид Беннетт / Sid Bennett
В ролях: Мэтт Кэйн, Ричард Диллэйн, Питер Брук, Наташа Лоринг, Абена Айивор, Стефен Дженнингс
Описание: Группа западных исследователей направляется на поиски существа, живущего в воде, о чьем существовании было известно, в основном, по мифам и легендам. Однако поездка изначально пошла не так, как было запланировано. Ряд неприятностей поставил группу на грань выживания в самой гуще тропических джунглей. Помимо многочисленных опасностей, которые здесь обнаружили герои фильма, им также пришлось столкнуться с созданиями, которых цивилизация считала вымершими миллионы лет назад…
Доп. информация: запись со спутника (телеканал HD-Кино, НТВ+).

Сэмпл: http://sendfile.su/864831
Качество: HDTV 1080i
Контейнер: TS
Видео: AVC/H.264, 1920x1080 (16:9), 6821 Кбит/сек, 25.000 fps, 0.132 bit/pixe
Аудио: AC-3, 6 ch, 48,0 КГц, 448 Кбит/сек

MediaInfo

Видео
Идентификатор : 321 (0x141)
Идентификатор меню : 1 (0x1)
Формат : AVC
Формат/Информация : Advanced Video Codec
Профиль формата : High@L4.0
Параметр CABAC формата : Да
Параметр ReFrames формата : 3 кадра
Идентификатор кодека : 27
Продолжительность : 1 ч. 19 м.
Битрейт : 6821 Кбит/сек
Ширина : 1920 пикселей
Высота : 1080 пикселей
Соотношение сторон : 16:9
Частота кадров : 25,000 кадров/сек
Стандарт вещания : Component
Цветовое пространство : YUV
Субдискретизация насыщенности : 4:2:0
Битовая глубина : 8 бит
Тип развёртки : Чересстрочная
Порядок развёртки : Верхнее поле первое
Бит/(Пиксели*Кадры) : 0.132
Размер потока : 3,79 Гбайт (89%)
Основные цвета : BT.709
Характеристики трансфера : BT.709
Коэффициенты матрицы : BT.709
Аудио
Идентификатор : 401 (0x191)
Идентификатор меню : 1 (0x1)
Формат : AC-3
Формат/Информация : Audio Coding 3
Расширение режима : CM (complete main)
Параметр Endianness формата : Big
Идентификатор кодека : 6
Продолжительность : 1 ч. 19 м.
Вид битрейта : Постоянный
Битрейт : 448 Кбит/сек
Каналы : 6 каналов
Расположение каналов : Front: L C R, Side: L R, LFE
Частота : 48,0 КГц
Битовая глубина : 16 бит
Метод сжатия : С потерями
Размер потока : 255 Мбайт (6%)
Язык : Russian

Скриншот с названием фильма

Скриншоты

Время раздачи: с 19:00 до 24:00 и утром (с 6:00 до 7:00 по мере возможности)
Скачать

Скачать торрент!

Как скачивать? · Что такое торрент? · Рейтинг и ограничения

Сайт не распространяет и не хранит электронные версии произведений, а лишь предоставляет доступ к создаваемому пользователями каталогу ссылок на торрент-файлы, которые содержат только списки хеш-сумм

[Профиль] [ЛС]
Показать сообщения:    
Ответить на тему

Текущее время: Сегодня 23:48

Часовой пояс: GMT + 4



Вы не можете начинать темы
Вы не можете отвечать на сообщения
Вы не можете редактировать свои сообщения
Вы не можете удалять свои сообщения
Вы не можете голосовать в опросах
Вы не можете прикреплять файлы к сообщениям
Вы не можете скачивать файлы