Лучшее предложение / La migliore offerta / The Best Offer (Джузеппе Торнаторе / Giuseppe Tornatore) [2013, Италия, триллер, драма, мелодрама, BDRip 1080p] [Rus transfer] Dub + Original (Eng) + Sub (Rus)

Ответить на тему
 
Автор Сообщение

user ®

Стаж: 7 лет 7 месяцев

Сообщений: 20008

Пост Пост: #1 от 10-Сен-2013 02:25

[Цитировать]

Лучшее предложение / La migliore offerta / The Best Offer
Страна: Италия
Студия: Paco Cinematografica, Warner Bros., Business Location Sudtirol Alto Adige
Жанр: триллер, драма, мелодрама
Год выпуска: 2013
Продолжительность: 02:09:32
Перевод: профессиональный (дублированный) [Blu-ray Rus]
Оригинальная аудиодорожка: английская
Cубтитры: русские
Режиссер: Джузеппе Торнаторе / Giuseppe Tornatore
В ролях: Джим Стёрджесс, Дональд Сазерленд, Джеффри Раш, Сильвия Хукс, Филип Джексон, Лия Кебеде, Дермот Краули, Кируна Стамелл, Майлз Ричардсон, Линн Суонсон
Описание: Вергилий Олдман — управляющий директор ведущего аукционного дома. Время от времени со своим партнёром Билли на глазах у всего мира он проворачивает хитроумные аферы, ловко манипулируя и вводя в заблуждение как продавцов, так и покупателей. В секретном зале своей виллы он собрал сотни бесценных картин из разных эпох. Однажды таинственная женщина, скрывающая свою личность, просит его продать антиквариат её семьи. Среди многочисленных произведений искусства раз за разом Олдман обнаруживает частицы давно утерянного механизма. В своё время поговаривали, что для того чтобы его оживить, создатели прибегали к помощи высших сил… Складывая, как пазл, найденные детали, вместе со своим гениальным другом Робертом они пытаются разгадать этот секрет. Но Олдман заинтересован не только предметами старины…

Релиз: fanatus
Качество видео: BDRip 1080p
Исходник: Blu-ray Rus
Контейнер: MKV
Видео: MPEG-4 AVC, 10.0 Mbps , 1920x804 (2.40:1), 24.000 fps, 0.272 bit/pixel
Аудио 1: русский (DTS, 6 ch, 48 kHz, 1510 kbps)
Аудио 2: английский (DTS, 6 ch, 48 kHz, 1510 kbps)
Формат субтитров: softsub (SRT)
Главы: есть

MediaInfo

General
Unique ID : 200978632999025574917666954219797306669 (0x973313A5B91C1DD78DA76E681D6B5D2D)
Complete name : E:\La migliore offerta.2013.x264.BDRip.1080p.fanatus.mkv
Format : Matroska
Format version : Version 2
File size : 11.8 GiB
Duration : 2h 9mn
Overall bit rate : 13.0 Mbps
Movie name : La migliore offerta (2013) - fanatus
Encoded date : UTC 2013-09-09 19:32:30
Writing application : mkvmerge v3.4.0 ('Rapunzel') сборка от May 15 2010 09:38:20
Writing library : libebml v0.8.0 + libmatroska v0.9.0
Video
ID : 1
Format : AVC
Format/Info : Advanced Video Codec
Format profile : High@L4.1
Format settings, CABAC : Yes
Format settings, ReFrames : 5 frames
Codec ID : V_MPEG4/ISO/AVC
Duration : 2h 9mn
Bit rate : 10 000 Kbps
Width : 1 920 pixels
Height : 804 pixels
Display aspect ratio : 2.40:1
Frame rate : 24.000 fps
Color space : YUV
Chroma subsampling : 4:2:0
Bit depth : 8 bits
Scan type : Progressive
Bits/(Pixel*Frame) : 0.270
Stream size : 8.81 GiB (75%)
Title : La migliore offerta (2013)
Writing library : x264 core 133 r2334 a3ac64b
Encoding settings : cabac=1 / ref=5 / deblock=1:-3:-3 / analyse=0x3:0x113 / me=tesa / subme=11 / psy=1 / psy_rd=0.95:0.00 / mixed_ref=1 / me_range=32 / chroma_me=1 / trellis=2 / 8x8dct=1 / cqm=0 / deadzone=21,11 / fast_pskip=0 / chroma_qp_offset=-2 / threads=16 / lookahead_threads=4 / sliced_threads=0 / nr=0 / decimate=0 / interlaced=0 / bluray_compat=0 / constrained_intra=0 / bframes=10 / b_pyramid=2 / b_adapt=2 / b_bias=0 / direct=3 / weightb=1 / open_gop=0 / weightp=2 / keyint=240 / keyint_min=24 / scenecut=40 / intra_refresh=0 / rc_lookahead=240 / rc=2pass / mbtree=0 / bitrate=10000 / ratetol=1.0 / qcomp=0.60 / qpmin=0 / qpmax=69 / qpstep=4 / cplxblur=20.0 / qblur=0.5 / vbv_maxrate=50000 / vbv_bufsize=62500 / nal_hrd=none / ip_ratio=1.30 / pb_ratio=1.20 / aq=1:0.95
Language : Italian
Default : Yes
Forced : No
Audio #1
ID : 2
Format : DTS
Format/Info : Digital Theater Systems
Codec ID : A_DTS
Duration : 2h 9mn
Bit rate mode : Constant
Bit rate : 1 510 Kbps
Channel(s) : 6 channels
Channel positions : Front: L C R, Side: L R, LFE
Sampling rate : 48.0 KHz
Bit depth : 24 bits
Compression mode : Lossy
Stream size : 1.37 GiB (12%)
Title : Dub
Language : Russian
Default : Yes
Forced : No
Audio #2
ID : 3
Format : DTS
Format/Info : Digital Theater Systems
Codec ID : A_DTS
Duration : 2h 9mn
Bit rate mode : Constant
Bit rate : 1 510 Kbps
Channel(s) : 6 channels
Channel positions : Front: L C R, Side: L R, LFE
Sampling rate : 48.0 KHz
Bit depth : 24 bits
Compression mode : Lossy
Stream size : 1.37 GiB (12%)
Title : Original
Language : English
Default : No
Forced : No
Text
ID : 4
Format : UTF-8
Codec ID : S_TEXT/UTF8
Codec ID/Info : UTF-8 Plain Text
Language : Russian
Default : No
Forced : No
Menu
00:00:00.000 : en:Chapter 01
00:00:25.750 : en:Chapter 02
00:09:46.208 : en:Chapter 03
00:20:07.250 : en:Chapter 04
00:38:36.458 : en:Chapter 05
00:51:22.541 : en:Chapter 06
01:16:23.583 : en:Chapter 07
01:34:46.583 : en:Chapter 08
01:53:21.666 : en:Chapter 09

x264 [info]

---[Information] [08.09.2013 23:43:15] raw [info]: 1920x804p 1:1 @ 24/1 fps (cfr)
---[Information] [08.09.2013 23:43:15] x264 [info]: using SAR=1/1
---[Information] [08.09.2013 23:43:15] x264 [info]: using cpu capabilities: MMX2 SSE2Fast SSSE3 SSE4.2 AVX
---[Information] [08.09.2013 23:43:15] x264 [info]: profile High, level 4.1
---[Information] [09.09.2013 22:20:14] x264 [info]: frame I:1860 Avg QP:13.96 size:243099
---[Information] [09.09.2013 22:20:14] x264 [info]: frame P:47933 Avg QP:15.64 size: 94588
---[Information] [09.09.2013 22:20:14] x264 [info]: frame B:136746 Avg QP:16.39 size: 34560
---[Information] [09.09.2013 22:20:14] x264 [info]: consecutive B-frames: 2.2% 4.6% 12.5% 48.7% 18.2% 10.2% 2.6% 0.5% 0.4% 0.1% 0.0%
---[Information] [09.09.2013 22:20:14] x264 [info]: mb I I16..4: 6.8% 69.1% 24.0%
---[Information] [09.09.2013 22:20:14] x264 [info]: mb P I16..4: 1.5% 16.2% 3.6% P16..4: 29.6% 31.2% 13.6% 0.0% 0.0% skip: 4.3%
---[Information] [09.09.2013 22:20:14] x264 [info]: mb B I16..4: 0.5% 3.6% 0.9% B16..8: 30.1% 22.6% 5.1% direct: 9.7% skip:27.6% L0:36.5% L1:45.0% BI:18.5%
---[Information] [09.09.2013 22:20:14] x264 [info]: 8x8 transform intra:74.2% inter:46.5%
---[Information] [09.09.2013 22:20:14] x264 [info]: direct mvs spatial:98.6% temporal:1.4%
---[Information] [09.09.2013 22:20:14] x264 [info]: coded y,uvDC,uvAC intra: 89.6% 87.8% 67.3% inter: 37.3% 34.9% 13.4%
---[Information] [09.09.2013 22:20:14] x264 [info]: i16 v,h,dc,p: 20% 16% 23% 41%
---[Information] [09.09.2013 22:20:14] x264 [info]: i8 v,h,dc,ddl,ddr,vr,hd,vl,hu: 19% 11% 19% 7% 8% 9% 7% 10% 10%
---[Information] [09.09.2013 22:20:14] x264 [info]: i4 v,h,dc,ddl,ddr,vr,hd,vl,hu: 37% 13% 17% 5% 6% 7% 5% 5% 5%
---[Information] [09.09.2013 22:20:14] x264 [info]: i8c dc,h,v,p: 46% 24% 21% 9%
---[Information] [09.09.2013 22:20:14] x264 [info]: Weighted P-Frames: Y:1.3% UV:0.5%
---[Information] [09.09.2013 22:20:14] x264 [info]: ref P L0: 56.6% 10.5% 21.2% 5.5% 5.3% 0.8% 0.0%
---[Information] [09.09.2013 22:20:14] x264 [info]: ref B L0: 84.1% 12.6% 2.4% 0.9%
---[Information] [09.09.2013 22:20:14] x264 [info]: ref B L1: 95.5% 4.5%
---[Information] [09.09.2013 22:20:14] x264 [info]: kb/s:9996.24
---[Information] [09.09.2013 22:20:14] encoded 186539 frames, 2.29 fps, 9996.24 kb/s

Скриншот c названием фильма

Скриншоты

Source vs Rip




Скачать

Скачать торрент!

Как скачивать? · Что такое торрент? · Рейтинг и ограничения

Сайт не распространяет и не хранит электронные версии произведений, а лишь предоставляет доступ к создаваемому пользователями каталогу ссылок на торрент-файлы, которые содержат только списки хеш-сумм

[Профиль] [ЛС]
Показать сообщения:    
Ответить на тему

Текущее время: Сегодня 14:11

Часовой пояс: GMT + 4



Вы не можете начинать темы
Вы не можете отвечать на сообщения
Вы не можете редактировать свои сообщения
Вы не можете удалять свои сообщения
Вы не можете голосовать в опросах
Вы не можете прикреплять файлы к сообщениям
Вы не можете скачивать файлы