Война миров Z / World War Z (Марк Форстер / Marc Forster) [2013, США, Ужасы, фантастика, боевик, триллер, приключения, BDRip] [Расширенная версия / Unrated Cut] Dub

Ответить на тему
 
Автор Сообщение

user ®

Стаж: 7 лет 7 месяцев

Сообщений: 20008

Пост Пост: #1 от 10-Сен-2013 02:25

[Цитировать]

Война миров Z / World War Z- Год выпуска: 2013
Выпущено: США / Paramount Pictures, Skydance Productions
Жанр: ужасы, фантастика, боевик, триллер, приключения
Продолжительность: 02:03:03
Перевод: Профессиональный (полное дублирование) Альтернативный дубляж
Cубтитры: нет-Режиссер:
Марк Форстер / Marc Forster-В ролях:
Брэд Питт (Gerry Lane), Мирей Инос (Karin Lane), Стерлинг Джеринс (Constance Lane), Эбигейл Харгров (Rachel Lane), Даниэла Картес (Segen), Фана Мокоэна (Thierry Umutoni), Пьерфранческо Фавино (W.H.O. Doctor), Питер Капальди (W.H.O. Doctor), Мориц Бляйбтрой (W.H.O. Doctor), Рут Негга (W.H.O. Doctor)-Описание:
Сотрудник ООН Джерри Лэйн наперегонки со временем пытается остановить заражение, способное полностью истребить человечество.-IMDB | КиноПоиск | Сэмпл |-Качество: BDRip [World.War.Z.2013.UNRATED.CUT.BluRay.1080p.AVC.DTS-HDMA7.1-CHDBits]
Формат: AVI
Видео: 656x272 (2.41:1), 23.976 fps, XviD build 73 ~712 kbps avg, 0.17 bit/pixel
Аудио: 48 kHz, MPEG Layer 3, 2 ch, ~128.00 kbps avg
-

Скриншоты

MediaInfo

General
Complete name                            : D:\Voina_mirov_Z_2013_BDRip_745_UNRATED_by_Dalemake.avi
Format                                   : AVI
Format/Info                              : Audio Video Interleave
File size                                : 748 MiB
Duration                                 : 2h 3mn
Overall bit rate                         : 850 Kbps
Writing application                      : VirtualDubMod 1.5.10.3 | www.virtualdub-fr.org || (build 2550/release)
Writing library                          : VirtualDubMod build 2550/release
Video
ID                                       : 0
Format                                   : MPEG-4 Visual
Format profile                           : Advanced Simple@L5
Format settings, BVOP                    : 1
Format settings, QPel                    : No
Format settings, GMC                     : No warppoints
Format settings, Matrix                  : Custom
Codec ID                                 : XVID
Codec ID/Hint                            : XviD
Duration                                 : 2h 3mn
Bit rate                                 : 713 Kbps
Width                                    : 656 pixels
Height                                   : 272 pixels
Display aspect ratio                     : 2.40:1
Frame rate                               : 23.976 fps
Color space                              : YUV
Chroma subsampling                       : 4:2:0
Bit depth                                : 8 bits
Scan type                                : Progressive
Compression mode                         : Lossy
Bits/(Pixel*Frame)                       : 0.167
Stream size                              : 628 MiB (84%)
Writing library                          : XviD 73
Audio
ID                                       : 1
Format                                   : MPEG Audio
Format version                           : Version 1
Format profile                           : Layer 3
Codec ID                                 : 55
Codec ID/Hint                            : MP3
Duration                                 : 2h 3mn
Bit rate mode                            : Constant
Bit rate                                 : 128 Kbps
Channel(s)                               : 2 channels
Sampling rate                            : 48.0 KHz
Compression mode                         : Lossy
Stream size                              : 113 MiB (15%)
Alignment                                : Aligned on interleaves
Interleave, duration                     : 42 ms (1.00 video frame)
Interleave, preload duration             : 504 ms
Writing library                          : LAME3.99r
Encoding settings                        : -m s -V 4 -q 2 -lowpass 17 -b 128
-
Скачать

Скачать торрент!

Как скачивать? · Что такое торрент? · Рейтинг и ограничения

Сайт не распространяет и не хранит электронные версии произведений, а лишь предоставляет доступ к создаваемому пользователями каталогу ссылок на торрент-файлы, которые содержат только списки хеш-сумм

[Профиль] [ЛС]
Показать сообщения:    
Ответить на тему

Текущее время: Сегодня 01:51

Часовой пояс: GMT + 4



Вы не можете начинать темы
Вы не можете отвечать на сообщения
Вы не можете редактировать свои сообщения
Вы не можете удалять свои сообщения
Вы не можете голосовать в опросах
Вы не можете прикреплять файлы к сообщениям
Вы не можете скачивать файлы