Кругосветное путешествие Кота в сапогах / Nagagutsu wo Haita Neko: 80 Nichikan Sekai Isshuu (Сидара Хироси / Shidara Hiroshi, Хироси Сэцураку) [1976, Анимация, комедия, VHSRip] [ОРТ] Dub

Ответить на тему
 
Автор Сообщение

user ®

Стаж: 13 лет

Сообщений: 15041

Пост Пост: #1 от 09-Сен-2013 23:15

[Цитировать]

Кругосветное путешествие Кота в сапогах / Nagagutsu wo Haita Neko: 80 Nichikan Sekai Isshuu- Страна: Япония
Жанр: Анимация, комедия
Продолжительность: 01:07:55
Год выпуска: 1976
Перевод: Профессиональный (дублированный)
Русские субтитры: нет-Режиссёр: Сидара Хироси / Shidara Hiroshi, Хироси Сэцураку
Роли озвучивали: Дубляж "Союзмультфильм".
Пэро: А. Щукин, Като: С.Самодур, Грумон: С. Бубнов, Профессор Гари-Гари: В. Ларионов-Описание: Неутомимый Кот в сапогах вместе со своими друзьями отправляется в новое путешествие — да не какое-нибудь, а вокруг света! Он заключает пари с жадным мистером Грумоном, что ему удастся обогнуть землю всего лишь за 80 дней! На этом пути Коту Перро придется пересечь безводную пустыню и холодные арктические льды, сразиться с быком на корриде и постоянно уходить от преследования хитрых и злобных врагов, всеми силами пытающимися навредить отважному путешественнику…-Доп. информация: Раритет! Полная версия мультфильма! Советская прокатная версия что была во всех кинотеатрах, все титры в начале и в конце на русском языке. Все песни исполнены в русском дубляже!-Запись с канала ОРТ в 1998 году. Все надписи на русском языке.-Сравнение с Предыдущей оцифровкой: http://screenshotcomparison.com/comparison/40329
Видео-картинка без обрезки сторон, оцифрована новой Видео-картой через профессиональный S-Video шнур (специальный толстый без потерь качества).-Сэмпл (1 минута)-Качество: TVRip \ VHSRip
Формат: MPG
Видео: MPEG2 Video 720x576 (4:3) 25.00fps 9000kbps
Аудио: Dolby AC3 48000Hz stereo 384kbps
Субтитры: отсутствуют

Подробные технические данные

GeneralComplete name : E:\Movies\Nagagutsu wo Haita Neko.80 Nichikan Sekai Isshuu_VHSRip_ORT_DUB.mpgFormat : MPEG-PSFile size : 3.57 GiBDuration : 1h 7mnOverall bit rate : 7 525 Kbps
VideoID : 224 (0xE0)Format : MPEG VideoFormat version : Version 2Format profile : Main@MainFormat settings, BVOP : YesFormat settings, Matrix : DefaultDuration : 1h 7mnBit rate mode : VariableBit rate : 6 991 KbpsMaximum bit rate : 9 000 KbpsWidth : 720 pixelsHeight : 576 pixelsDisplay aspect ratio : 4:3Frame rate : 25.000 fpsStandard : PALColor space : YUVChroma subsampling : 4:2:0Bit depth : 8 bitsScan type : InterlacedScan order : Top Field FirstCompression mode : LossyBits/(Pixel*Frame) : 0.674Stream size : 3.32 GiB (93%)
AudioID : 189 (0xBD)-128 (0x80)Format : AC-3Format/Info : Audio Coding 3Mode extension : CM (complete main)Muxing mode : DVD-VideoDuration : 1h 7mnBit rate mode : ConstantBit rate : 384 KbpsChannel(s) : 2 channelsChannel positions : Front: L RSampling rate : 48.0 KHzBit depth : 16 bitsCompression mode : LossyDelay relative to video : 25msStream size : 187 MiB (5%)

Скриншоты

Сравнение с предыдущей оцифровкой (Новая запись):

Скачать

Скачать торрент! Кругосветное путешествие Кота в сапогах / Nagagutsu wo Haita Neko: 80 Nichikan Sekai Isshuu (Сидара Хироси / Shidara Hiroshi, Хироси Сэцураку) [1976, Анимация, комедия, VHSRip] [ОРТ] Dub

Как скачивать? · Что такое торрент? · Рейтинг и ограничения

Сайт не распространяет и не хранит электронные версии произведений, а лишь предоставляет доступ к создаваемому пользователями каталогу ссылок на торрент-файлы, которые содержат только списки хеш-сумм

[Профиль] [ЛС]
Показать сообщения:    
Ответить на тему

Текущее время: Сегодня 03:12

Часовой пояс: GMT + 4



Вы не можете начинать темы
Вы не можете отвечать на сообщения
Вы не можете редактировать свои сообщения
Вы не можете удалять свои сообщения
Вы не можете голосовать в опросах
Вы не можете прикреплять файлы к сообщениям
Вы не можете скачивать файлы