Неуязвимый / Unbreakable (М. Найт Шьямалан / M. Night Shyamalan) [2000 г., США, Триллер, детектив, драма, BDRip 1080p] Dub + 2x MVO + 2x AVO + Original + Subs (Rus, Eng)

Ответить на тему
 
Автор Сообщение

user ®

Стаж: 7 лет 7 месяцев

Сообщений: 20008

Пост Пост: #1 от 09-Сен-2013 20:05

[Цитировать]

Неуязвимый / Unbreakable«Два полюса одной тайны»- -Год выпуска: 2000
Страна: США
Жанр: Триллер, детектив, драма
Продолжительность: 01:46:39
Перевод №1: Профессиональный (дублированный)
Перевод №2: Профессиональный (многоголосый закадровый)
Перевод №3: Профессиональный (многоголосый закадровый, ОРТ)
Перевод №4: Авторский (одноголосый закадровый, А.Гаврилов)
Перевод №5: Авторский (одноголосый закадровый, Ю.Живов)
Субтитры: Русские, Английские-Режиссер: М. Найт Шьямалан / M. Night Shyamalan
Сценарий: М. Найт Шьямалан / M. Night Shyamalan
Продюсер: М. Найт Шьямалан / M. Night Shyamalan, Бэрри Мендел / Barry Mendel, Сэм Мерсер / Sam Mercer, Гари Барбер / Gary Barber, Роджер Бернбаум / Roger Birnbaum
Оператор: Эдуарду Серра / Eduardo Serra
Композитор: Джеймс Ньютон Ховард / James Newton Howard
В ролях: Брюс Уиллис (David Dunn), Сэмюэл Л. Джексон (Elijah Price), Робин Райт (Audrey Dunn), Спенсер Трит Кларк (Joseph Dunn), Чарлэйн Вудард (Elijah's Mother), Имонн Уолкер (Dr. Mathison), Лесли Стефансон (Kelly), Джонни Хирам Джеймисон (Elijah Age 13), Мишелия Кэрролл (Babysitter), Бостин Кристофер (Comic Book Clerk), Элизабет Лоуренс (School Nurse), Дэвид Даффилд (David Dunn Age 20)-Описание: В 3:15 пополудни происходит страшная железнодорожная катастрофа. Из 132 пассажиров в живых остается только один. Дэйвид Данн не просто уцелел посреди мгновенного ада из железа и огня — он не получил ни одной царапины. И лишь один человек на земле знает причину этого чуда — Элайджа Прайс по прозвищу «Мистер Стекло», чьи кости могут сломаться даже от незначительного внешнего усилия...-
Доп. информация: Источник Птица.-Качество: Blu-ray Rip 1080p
Формат: MKV
Видео: MPEG-4 AVC (H264), High Profile 4.1, 1920x816, 23.976 fps, ~11000 kbps avg, bit/(pixel*frame) 0.293
Аудио №1: Russian: 48 kHz, AC3, 3/2 (L,C,R,l,r) + LFE ch, ~640.00 kbps avg //дубляж
Аудио №2: Russian: 48 kHz, AC3, 3/2 (L,C,R,l,r) + LFE ch, ~448.00 kbps avg //многоголосый закадровый
Аудио №3: Russian: 48 kHz, AC3, 2.0 (L,R) ch, ~128.00 kbps avg //многоголосый закадровый (ОРТ)
Аудио №4: Russian: 48 kHz, AC3, 3/2 (L,C,R,l,r) + LFE ch, ~448.00 kbps avg //одноголосый закадровый (А.Гаврилов)
Аудио №5: Russian: 48 kHz, DTS, 3/2 (L,C,R,l,r) + LFE ch, ~1510.00 kbps avg //одноголосый закадровый (Ю.Живов)
Аудио №6: English: 48 kHz, DTS, 3/2 (L,C,R,l,r) + LFE ch, ~1510.00 kbps avg //original
Субтитры: Russian (только надписи), Russian, English, English (SDH) (Softsub SRT)
Навигация по главам: есть-

Скриншоты

Blu-Ray vs Rip vs [url=http://***/forum/viewtopic.php?t=821663]Хансмер[/url]




MediaInfo

I:\movie HD III\Unbreakable [Неуязвимый] (2000) 1920x816 BDRip RusEngSubsChpt.mkv
General
Unique ID : 194103079836036897424261931237674029747 (0x9206E4B440123C42B8A23BB0F96392B3)
Complete name : I:\movie HD III\Unbreakable [Неуязвимый] (2000) 1920x816 BDRip RusEngSubsChpt.mkv
Format : Matroska
Format version : Version 4 / Version 2
File size : 11.7 GiB
Duration : 1h 46mn
Overall bit rate : 15.7 Mbps
Movie name : -=RbM=-
Encoded date : UTC 2013-09-09 13:01:42
Writing application : mkvmerge v6.3.0 ('You can't stop me!') built on Jun 28 2013 20:09:41
Writing library : libebml v1.3.0 + libmatroska v1.4.0
Video #1
ID : 1
Format : AVC
Format/Info : Advanced Video Codec
Format profile : High@L4.1
Format settings, CABAC : Yes
Format settings, ReFrames : 4 frames
Codec ID : V_MPEG4/ISO/AVC
Duration : 1h 46mn
Bit rate : 11.0 Mbps
Width : 1 920 pixels
Height : 816 pixels
Display aspect ratio : 2.35:1
Frame rate mode : Constant
Frame rate : 23.976 fps
Color space : YUV
Chroma subsampling : 4:2:0
Bit depth : 8 bits
Scan type : Progressive
Bits/(Pixel*Frame) : 0.293
Stream size : 7.96 GiB (68%)
Title : 47% of the original
Writing library : x264 core 138 r2359+704+48 3f879a0 tMod [8-bit@all X86_64]
Encoding settings : cabac=1 / ref=4 / deblock=1:-3:-3 / analyse=0x3:0x133 / me=umh / subme=11 / psy=1 / fade_compensate=0.00 / psy_rd=1.00:0.00 / mixed_ref=1 / me_range=32 / chroma_me=1 / trellis=2 / 8x8dct=1 / cqm=0 / deadzone=21,11 / fast_pskip=0 / chroma_qp_offset=-2 / threads=12 / lookahead_threads=3 / sliced_threads=0 / nr=0 / decimate=0 / interlaced=0 / bluray_compat=0 / constrained_intra=0 / fgo=0 / bframes=10 / b_pyramid=2 / b_adapt=2 / b_bias=0 / direct=3 / weightb=1 / open_gop=0 / weightp=2 / keyint=250 / keyint_min=23 / scenecut=40 / intra_refresh=0 / rc_lookahead=80 / rc=2pass / mbtree=1 / bitrate=11000 / ratetol=1.0 / qcomp=0.70 / qpmin=0:0:0 / qpmax=69:69:69 / qpstep=4 / cplxblur=20.0 / qblur=0.5 / ip_ratio=1.40 / aq=4:1.00 / aq-sensitivity=10.00 / aq-factor=1.00:1.00:1.00 / aq2=0 / aq3=0
Language : English
Default : Yes
Forced : No
Color primaries : BT.709
Transfer characteristics : BT.709
Matrix coefficients : BT.709
Audio #2
ID : 2
Format : AC-3
Format/Info : Audio Coding 3
Mode extension : CM (complete main)
Format settings, Endianness : Big
Codec ID : A_AC3
Duration : 1h 46mn
Bit rate mode : Constant
Bit rate : 640 Kbps
Channel count : 6 channels
Channel positions : Front: L C R, Side: L R, LFE
Sampling rate : 48.0 KHz
Bit depth : 16 bits
Compression mode : Lossy
Stream size : 489 MiB (4%)
Title : Dub AC3 5.1ch 640kbps
Language : Russian
Default : Yes
Forced : No
Audio #3
ID : 3
Format : AC-3
Format/Info : Audio Coding 3
Mode extension : CM (complete main)
Format settings, Endianness : Big
Codec ID : A_AC3
Duration : 1h 46mn
Bit rate mode : Constant
Bit rate : 448 Kbps
Channel count : 6 channels
Channel positions : Front: L C R, Side: L R, LFE
Sampling rate : 48.0 KHz
Bit depth : 16 bits
Compression mode : Lossy
Stream size : 342 MiB (3%)
Title : MVO AC3 5.1ch 448kbps
Language : Russian
Default : No
Forced : No
Audio #4
ID : 4
Format : AC-3
Format/Info : Audio Coding 3
Mode extension : CM (complete main)
Format settings, Endianness : Big
Codec ID : A_AC3
Duration : 1h 46mn
Bit rate mode : Constant
Bit rate : 128 Kbps
Channel count : 2 channels
Channel positions : Front: L R
Sampling rate : 48.0 KHz
Bit depth : 16 bits
Compression mode : Lossy
Stream size : 97.8 MiB (1%)
Title : MVO AC3 2.0ch 128kbps (ОРТ)
Language : Russian
Default : No
Forced : No
Audio #5
ID : 5
Format : AC-3
Format/Info : Audio Coding 3
Mode extension : CM (complete main)
Format settings, Endianness : Big
Codec ID : A_AC3
Duration : 1h 46mn
Bit rate mode : Constant
Bit rate : 448 Kbps
Channel count : 6 channels
Channel positions : Front: L C R, Side: L R, LFE
Sampling rate : 48.0 KHz
Bit depth : 16 bits
Compression mode : Lossy
Stream size : 342 MiB (3%)
Title : AVO AC3 5.1ch 448kbps (А.Гаврилов)
Language : Russian
Default : No
Forced : No
Audio #6
ID : 6
Format : DTS
Format/Info : Digital Theater Systems
Mode : 16
Format settings, Endianness : Big
Codec ID : A_DTS
Duration : 1h 46mn
Bit rate mode : Constant
Bit rate : 1 510 Kbps
Channel count : 6 channels
Channel positions : Front: L C R, Side: L R, LFE
Sampling rate : 48.0 KHz
Bit depth : 24 bits
Compression mode : Lossy
Stream size : 1.13 GiB (10%)
Title : AVO DTS 5.1ch 1510kbps (Ю.Живов)
Language : Russian
Default : No
Forced : No
Audio #7
ID : 7
Format : DTS
Format/Info : Digital Theater Systems
Mode : 16
Format settings, Endianness : Big
Codec ID : A_DTS
Duration : 1h 46mn
Bit rate mode : Constant
Bit rate : 1 509 Kbps
Channel count : 6 channels
Channel positions : Front: L C R, Side: L R, LFE
Sampling rate : 48.0 KHz
Bit depth : 16 bits
Compression mode : Lossy
Stream size : 1.13 GiB (10%)
Title : Original DTS 5.1ch 1510kbps
Language : English
Default : No
Forced : No
Text #8
ID : 8
Format : UTF-8
Codec ID : S_TEXT/UTF8
Codec ID/Info : UTF-8 Plain Text
Title : captions
Language : Russian
Default : Yes
Forced : No
Text #9
ID : 9
Format : UTF-8
Codec ID : S_TEXT/UTF8
Codec ID/Info : UTF-8 Plain Text
Title : full
Language : Russian
Default : No
Forced : No
Text #10
ID : 10
Format : UTF-8
Codec ID : S_TEXT/UTF8
Codec ID/Info : UTF-8 Plain Text
Title : full
Language : English
Default : No
Forced : No
Text #11
ID : 11
Format : UTF-8
Codec ID : S_TEXT/UTF8
Codec ID/Info : UTF-8 Plain Text
Title : SDH
Language : English
Default : No
Forced : No
Menu
00:00:00.000 : en:Train To Philadelphia
00:08:44.023 : en:Eastrail #177
00:09:50.673 : en:The Only Survivor
00:14:57.063 : en:Memorial Service
00:16:30.948 : en:How Many Sick Days?
00:20:57.339 : en:West Philadelphia, 1974
00:25:04.920 : en:Elijah's Gallery
00:32:26.069 : en:Newspaper Clippings
00:34:37.158 : en:A Second Chance
00:36:28.395 : en:Instinct For Protection
00:40:55.703 : en:A Silver Gun With A Black Grip
00:43:22.975 : en:How Much Can You Lift?
00:49:59.038 : en:An Unbelievable Possibility
00:54:53.040 : en:Intuition
00:56:57.414 : en:The Hero's Code
01:00:00.096 : en:Fantasy Or Reality?
01:02:51.393 : en:Love--That's Forever
01:04:35.038 : en:Comic Book Store
01:07:37.262 : en:First Date
01:12:16.832 : en:Message From Elijah
01:13:28.446 : en:Revisiting The Wreckage
01:17:33.315 : en:Go To Where People Are
01:22:19.685 : en:Overcoming His Weakness
01:31:38.618 : en:I Had A Bad Dream
01:33:13.588 : en:A Hero
01:35:53.081 : en:Kind Of A Miracle
01:37:49.989 : en:It Has Begun
01:42:15.463 : en:End Credits
01:46:37.391 : en:End

x264 log

x264 [info]: frame I:702 Avg QP:14.38 size:205511 PSNR Mean Y:49.25 U:53.38 V:55.30 Avg:50.08 Global:49.52
x264 [info]: frame P:32539 Avg QP:17.07 size: 90728 PSNR Mean Y:46.98 U:52.83 V:54.87 Avg:47.95 Global:47.48
x264 [info]: frame B:120192 Avg QP:18.56 size: 47441 PSNR Mean Y:45.84 U:51.02 V:53.53 Avg:46.86 Global:46.06
x264 [info]: consecutive B-frames: 0.9% 2.1% 4.8% 30.6% 20.3% 28.2% 6.0% 5.8% 0.4% 0.1% 0.8%
x264 [info]: mb I I16..4: 9.2% 70.3% 20.5%
x264 [info]: mb P I16..4: 0.6% 9.7% 0.7% P16..4: 32.9% 39.9% 11.7% 1.6% 0.1% skip: 2.9%
x264 [info]: mb B I16..4: 0.1% 2.3% 0.1% B16..8: 40.6% 18.0% 2.7% direct:11.7% skip:24.4% L0:42.9% L1:43.3% BI:13.8%
x264 [info]: 8x8 transform intra:87.8% inter:53.8%
x264 [info]: direct mvs spatial:99.3% temporal:0.7%
x264 [info]: coded y,uvDC,uvAC intra: 95.5% 86.3% 65.1% inter: 40.5% 35.1% 11.7%
x264 [info]: i16 v,h,dc,p: 21% 13% 22% 44%
x264 [info]: i8 v,h,dc,ddl,ddr,vr,hd,vl,hu: 9% 7% 11% 11% 14% 12% 12% 12% 12%
x264 [info]: i4 v,h,dc,ddl,ddr,vr,hd,vl,hu: 9% 7% 11% 10% 14% 12% 12% 11% 13%
x264 [info]: i8c dc,h,v,p: 43% 22% 17% 18%
x264 [info]: Weighted P-Frames: Y:4.0% UV:1.7%
x264 [info]: ref P L0: 48.0% 7.0% 28.7% 15.1% 1.2% 0.0%
x264 [info]: ref B L0: 84.3% 11.9% 3.7%
x264 [info]: ref B L1: 93.1% 6.9%
x264 [info]: SSIM Mean Y:0.9808983 (17.189db)
x264 [info]: PSNR Mean Y:46.099 U:51.413 V:53.824 Avg:47.104 Global:46.338 kb/s:10999.14
x264 [info]: encoded 153433 frames, 7.524 fps, 10999.14 kb/s, 8390.9 MB
x264 [info]: ended at Thu Sep 05 13:31:34 2013
x264 [info]: encoding duration 5:39:52
Скачать

Скачать торрент!

Как скачивать? · Что такое торрент? · Рейтинг и ограничения

Сайт не распространяет и не хранит электронные версии произведений, а лишь предоставляет доступ к создаваемому пользователями каталогу ссылок на торрент-файлы, которые содержат только списки хеш-сумм

[Профиль] [ЛС]
Показать сообщения:    
Ответить на тему

Текущее время: Сегодня 22:29

Часовой пояс: GMT + 4



Вы не можете начинать темы
Вы не можете отвечать на сообщения
Вы не можете редактировать свои сообщения
Вы не можете удалять свои сообщения
Вы не можете голосовать в опросах
Вы не можете прикреплять файлы к сообщениям
Вы не можете скачивать файлы