Любовь без пересадок / Amour & turbulences (Александр Кастаньетти / Alexandre Castagnetti) [2013 г., Франция, мелодрама, комедия, BDRip] DUB

Ответить на тему
 
Автор Сообщение

user ®

Стаж: 7 лет 7 месяцев

Сообщений: 20008

Пост Пост: #1 от 09-Сен-2013 13:50

[Цитировать]

Любовь без пересадокAmour & turbulencesГод выпуска: 2013
Страна: Франция
Жанр: мелодрама, комедия
Продолжительность: 01:37:09
Перевод: Профессиональный (дублированный)-Режиссер: Александр Кастаньетти / Alexandre Castagnetti
В ролях: Людивин Санье, Николя Бедо, Джонатан Коэн, Арно Дюкре, Бриджитт Катийон, Жакки Берруайе, Клементин Селарье, Мишель Вюйермоз, Лила Сале, Ина Кастаньетти-Описание: Преуспевающий адвокат Антуан никогда не знал недостатка в женском внимании. Отправляясь по делам из Нью-Йорка в Париж, в самолете он оказывается в соседнем кресле с бывшей подругой Джули. Обреченные провести вместе семь долгих часов бывшие любовники успевают вспомнить былые обиды, все неприятности, доставленные друг другу, и понять, что их разрыв был ошибкой. Но успеют ли они эту ошибку исправить?-Рейтинг
kinopoisk.ru: 6.859 (1398)
imdb.com:6.000 (323)
Качество: BDRip (Cпасибо delo2006 за исходник для видеоряда и для звука - Amour.Turbulences.2013.BDRemux.HDTracker )
Видео: 720x304 (2.37:1), 23.976 fps, XviD MPEG-4 ~1701 kbps avg, 0.32 bit/pixel
Аудио: 48 kHz, AC3 Dolby Digital, 3/2 (L,C,R,l,r) + LFE ch, ~448 kbps - RUS [DUB]

Скриншоты

С названием


-

MediaInfo

Общее
Полное имя                       : Lyubov.bez.Peresadok.2013.XviD.BDRip.RusDUB.avi
Формат                           : AVI
Формат/Информация                : Audio Video Interleave
Размер файла                     : 1,46 Гбайт
Продолжительность                : 1 ч. 37 м.
Общий поток                      : 2159 Кбит/сек
Название фильма                  : Lyubov.bez.Peresadok2013.XviD.BDRip.RusDUB
Программа кодирования            : VirtualDubMod 1.5.10.3 | www.virtualdub-fr.org || (build 2550/release)
Видео
Идентификатор                    : 0
Формат                           : MPEG-4 Visual
Профиль формата                  : Advanced Simple@L5
Параметр BVOP формата            : 2
Параметр QPel формата            : Нет
Параметр GMC формата             : Без точки перехода
Параметр матрицы формата         : Выборочная
Идентификатор кодека             : XVID
Идентификатор кодека/Подсказка   : XviD
Продолжительность                : 1 ч. 37 м.
Битрейт                          : 1701 Кбит/сек
Ширина                           : 720 пикселей
Высота                           : 304 пикселя
Соотношение сторон               : 2,35:1
Частота кадров                   : 23,976 кадра/сек
Цветовое пространство            : YUV
Субдискретизация насыщенности    : 4:2:0
Битовая глубина                  : 8 бит
Тип развёртки                    : Прогрессивная
Метод сжатия                     : С потерями
Бит/(Пиксели*Кадры)              : 0.324
Размер потока                    : 1,15 Гбайт (79%)
Библиотека кодирования           : XviD 73
Аудио
Идентификатор                    : 1
Формат                           : AC-3
Формат/Информация                : Audio Coding 3
Расширение режима                : CM (complete main)
Идентификатор кодека             : 2000
Продолжительность                : 1 ч. 37 м.
Вид битрейта                     : Постоянный
Битрейт                          : 448 Кбит/сек
Каналы                           : 6 каналов
Расположение каналов             : Front: L C R, Side: L R, LFE
Частота                          : 48,0 КГц
Битовая глубина                  : 16 бит
Метод сжатия                     : С потерями
Размер потока                    : 311 Мбайт (21%)
Выравнивание                     : Разделение по промежуткам
Продолжительность промежутка     : 42  мс. (1,00 видеокадр)
Время предзагрузки промежутка    : 500  мс.
Скачать

Скачать торрент!

Как скачивать? · Что такое торрент? · Рейтинг и ограничения

Сайт не распространяет и не хранит электронные версии произведений, а лишь предоставляет доступ к создаваемому пользователями каталогу ссылок на торрент-файлы, которые содержат только списки хеш-сумм

[Профиль] [ЛС]
Показать сообщения:    
Ответить на тему

Текущее время: Сегодня 14:36

Часовой пояс: GMT + 4



Вы не можете начинать темы
Вы не можете отвечать на сообщения
Вы не можете редактировать свои сообщения
Вы не можете удалять свои сообщения
Вы не можете голосовать в опросах
Вы не можете прикреплять файлы к сообщениям
Вы не можете скачивать файлы