Поезд до Бруклина (Валерий Федосов) [1994, приключения, боевик, HDTVRip]

Ответить на тему
 
Автор Сообщение

user ®

Стаж: 7 лет 7 месяцев

Сообщений: 20008

Пост Пост: #1 от 09-Сен-2013 07:30

[Цитировать]

Поезд до Бруклина
Жанр: приключения, боевик
Год выпуска: 1994
Продолжительность: 01:27:28
Режиссёр: Валерий Федосов
В ролях: Анна Самохина, Николай Добрынин, Сергей Гармаш, Лариса Удовиченко, Родион Газманов, Светлана Тома, Евгений Жариков, Анатолий Равикович, Александр Песков, Борис Зайденберг, Алексей Золотницкий, Александра Свенская, Ирина Безрукова, Нелли Петкова, Юрий Рудченко, Наталья Величко, Александр Боровиков, Геннадий Андрианов, Вячеслав Колегаев, Сергей Рахманинов, Олег Школьник, Дмитрий Шостакович, Родион Щедрин
Описание: Восемь лет она была ему женой, любовницей, нянькой, но он сбежал в Бруклин с ее лучшей подругой. От самоубийства героиню спасает случай и некто, кому также угрожает смертельная опасность. Новые страхи и внезапная страсть возрождают ее надежды...

Качество видео: HDTVRip
Формат видео: AVI
Видео: AVC 720x400 (16:9) 25.0fps Bit rate 2069Kbps p/b 0.287
Аудио: AC3 48.0KHz 2ch 224 Kbps rus

MediaInfo

General
Complete name : E:\torrent\Poezd do Bruklina_hdtvrip.avi
Format : AVI
Format/Info : Audio Video Interleave
File size : 1.41 GiB
Duration : 1h 27mn
Overall bit rate : 2 302 Kbps
Writing library : VirtualDub build 32842/release
Video
ID : 0
Format : MPEG-4 Visual
Format profile : Advanced Simple@L5
Format settings, BVOP : Yes
Format settings, QPel : No
Format settings, GMC : No warppoints
Format settings, Matrix : Default (H.263)
Codec ID : XVID
Codec ID/Hint : XviD
Duration : 1h 27mn
Bit rate : 2 069 Kbps
Width : 720 pixels
Height : 400 pixels
Display aspect ratio : 16:9
Frame rate : 25.000 fps
Color space : YUV
Chroma subsampling : 4:2:0
Bit depth : 8 bits
Scan type : Progressive
Bits/(Pixel*Frame) : 0.287
Stream size : 1.26 GiB (90%)
Writing library : XviD 1.2.1 (UTC 2008-12-04)
Audio
ID : 1
Format : AC-3
Format/Info : Audio Coding 3
Mode extension : CM (complete main)
Codec ID : 2000
Duration : 1h 27mn
Bit rate mode : Constant
Bit rate : 224 Kbps
Channel(s) : 2 channels
Channel positions : Front: L R
Sampling rate : 48.0 KHz
Bit depth : 16 bits
Stream size : 140 MiB (10%)
Alignment : Aligned on interleaves
Interleave, duration : 40 ms (1.00 video frame)
Interleave, preload duration : 512 ms

Скриншот c названием фильма

Скриншоты

Скачать

Скачать торрент!

Как скачивать? · Что такое торрент? · Рейтинг и ограничения

Сайт не распространяет и не хранит электронные версии произведений, а лишь предоставляет доступ к создаваемому пользователями каталогу ссылок на торрент-файлы, которые содержат только списки хеш-сумм

[Профиль] [ЛС]
Показать сообщения:    
Ответить на тему

Текущее время: Сегодня 03:59

Часовой пояс: GMT + 4



Вы не можете начинать темы
Вы не можете отвечать на сообщения
Вы не можете редактировать свои сообщения
Вы не можете удалять свои сообщения
Вы не можете голосовать в опросах
Вы не можете прикреплять файлы к сообщениям
Вы не можете скачивать файлы