Девять, два, одиннадцать / В бегах / Nau Do Gyarah (Виджай Ананд / Vijay Anand) [1957, Индия, Триллер, DVDRip] VO (Nastia) + Sub Rus

Ответить на тему
 
Автор Сообщение

user ®

Стаж: 12 лет

Сообщений: 15092

Пост Пост: #1 от 09-Сен-2013 01:15

[Цитировать]

Девять, два, одиннадцать / В бегах / Nau Do Gyarah
Страна: Индия
Жанр: Триллер
Год выпуска: 1957
Продолжительность: 02:30:12
Перевод: Одноголосый закадровый (Nastia )
Cубтитры: русские (песни)
Оригинальная аудиодорожка: хинди
Режиссер: Виджай Ананд / Vijay Anand
В ролях: Дев Ананд, Калпана Картик, Шашикала, Лалита Павар, Дживан, Мадан Пури, Кришан Дхаван, Рашид Хан
Описание: Богатая наследница Ракша бежит со своей свадьбы, узнав что жених ее дурной человек женящийся на ней ради ее приданного.Она прячется в машине парня по имени Мадан, который едет к своему дяде миллионеру завещавшему Мадану свое состояние. По приезде он узнает что дядя неожиданно умер,а наследство досталось его жене и ее сыну Кульдипу. Мадан подозревает что внезапная смерть дяди не случайна и хочет выяснить истину, в чем ему помагает Ракша, согласившись выдать себя за его жену.
Доп. информация: Это режиссерский дебют Виджая Ананда, младшего брата Дева Ананда, который в этом фильме был продюсером.Главную роль играет и Калпана Картик (Настоящее имя Мона Ака Калпана), жена Дева Ананда,бывшая Мисс Индия. Это была ее последняя роль в кино, в будущем она работала только за кадром, в основном как продюсер.
Большое спасибо:
larisa_k за перевод субтитров, за предоставленный озвучку и за DVDRip.
Nastia за озвучку фильма
Cведение звука: pca1962
Сэмпл: http://sendfile.su/864230
Качество видео: DVDRip
Формат видео: AVI
Видео: XviD, 640x480, 29.97 fps, 905 kbps
Аудио: AC3, 48 kHz, 2.0 (stereo), 192 kbps (русский)
Аудио 2: MP3, 48 kHz, 2.0 (stereo), 128 kbps (хинди)
Формат субтитров: softsub (SRT)

MediaInfo

=== Общие ===
Полное имя : Devyat.dva.odinnadsat.1957.DVDRip.XviD.pca1962.avi
Формат : AVI
Описание формата : Audio Video Interleave
Размер файла : 1.38 Гб
Длительность : 2ч 30мин
Общий битрейт : 1 314 кбит/сек
Програмное обеспечение : VirtualDubModRus 1.5.10.2 (build 2542/release)
Кодирующая библиотека : VirtualDubMod build 2542/release
=== Видео ===
ID (Идентификатор) : 0
Формат : MPEG-4 Visual
Профиль формата : Advanced Simple@L5
Параметр 'BVOP' : 1
Параметр 'QPel' : Нет
Параметр 'GMC' : No warppoints
Параметр 'Matrix' : Custom
Идентификатор кодека : XVID
Подпись кодека : XviD
Длительность : 2ч 30мин
Битрейт : 905 кбит/сек
Ширина кадра : 640 пикселей
Высота кадра : 480 пикселей
Соотношение сторон : 4:3
Частота кадров : 29.970 кадров/сек
Цветовое пространство : YUV
Субдискретизация насыщенности : 4:2:0
Глубина (разрядность) : 8 bits
Тип развертки : Прогрессивная
Режим сжатия : С потерями
Бит/(пиксель*кадр) : 0.098
Размер потока : 973 Мб (69%)
Кодирующая библиотека : XviD 1.2.1 (UTC 2008-12-04)
=== Аудио 1 ===
ID (Идентификатор) : 1
Формат : AC-3
Описание формата : Audio Coding 3
Mode extension : CM (complete main)
Идентификатор кодека : 2000
Длительность : 2ч 30мин
Тип битрейта : Постоянный
Битрейт : 192 кбит/сек
Канал(ы) : 2 каналов
Расположение каналов : Front: L R
Частота дискретизации : 48.0 кГц
Глубина (разрядность) : 16 bits
Режим сжатия : С потерями
Размер потока : 206 Мб (15%)
Расположение потока : Split accross interleaves
Период чередования : 33 мс (1.00 video frame)
Предварительная загрузка : 500 мс
Язык : Hindi
=== Аудио 2 ===
ID (Идентификатор) : 2
Формат : MPEG Audio
Версия формата : Version 1
Профиль формата : Layer 3
Режим : Joint stereo
Mode extension : MS Stereo
Идентификатор кодека : 55
Подпись кодека : MP3
Длительность : 2ч 30мин
Тип битрейта : Постоянный
Битрейт : 128 кбит/сек
Канал(ы) : 2 каналов
Частота дискретизации : 48.0 кГц
Режим сжатия : С потерями
Размер потока : 137 Мб (10%)
Расположение потока : Aligned on interleaves
Период чередования : 33 мс (1.00 video frame)
Предварительная загрузка : 504 мс
Кодирующая библиотека : LAME3.98r
Параметры кодирования : -m j -V 4 -q 2 -lowpass 17 -b 128

Скриншот c названием фильма

Скачать

Скачать торрент! Девять, два, одиннадцать / В бегах / Nau Do Gyarah (Виджай Ананд / Vijay Anand) [1957, Индия, Триллер, DVDRip] VO (Nastia) + Sub Rus

Как скачивать? · Что такое торрент? · Рейтинг и ограничения

Сайт не распространяет и не хранит электронные версии произведений, а лишь предоставляет доступ к создаваемому пользователями каталогу ссылок на торрент-файлы, которые содержат только списки хеш-сумм

[Профиль] [ЛС]
Показать сообщения:    
Ответить на тему

Текущее время: Сегодня 07:08

Часовой пояс: GMT + 4



Вы не можете начинать темы
Вы не можете отвечать на сообщения
Вы не можете редактировать свои сообщения
Вы не можете удалять свои сообщения
Вы не можете голосовать в опросах
Вы не можете прикреплять файлы к сообщениям
Вы не можете скачивать файлы