Летнее время / L'heure d'ete / Summer Hours (Оливье Ассайас / Olivier Assayas) [2008, Франция, драма, BDRemux 1080p] [Criterion Collection] MVO + Sub (Rus, Eng) + Original Fre

Ответить на тему
 
Автор Сообщение

user ®

Стаж: 7 лет 7 месяцев

Сообщений: 20008

Пост Пост: #1 от 09-Сен-2013 01:15

[Цитировать]

Летнее время / L'heure d'ete / Summer Hours
Страна: Франция
Жанр: драма
Год выпуска: 2008
Продолжительность: 01:43:05
Перевод: Профессиональный (многоголосый закадровый) | Первый канал
Cубтитры: русские, английские
Оригинальная аудиодорожка: французский-Режиссер: Оливье Ассайас / Olivier Assayas
В ролях: Жюльет Бинош, Шарль Берлинг, Жереми Ренье, Эдит Скоб, Доминик Реймон, Валери Боннетон, Изабель Садоян, Кайл Иствуд, Алиса де Ланкесэ, Франсуа-Мари Банье, Эмиль Берлинг, Жан-Батист Малартр, Жиль Арбона, Эрик Эльмонино, Сара Мартинс, Филипп Пеймбланк
Описание: Элен посвятила всю свою жизнь заботам о сохранении наследия своего дяди – известного художника. На торжество в честь её 75-летия в загородном доме собирается вся семья: дочь Эдриэн и сыновья Фредерик и Жереми. Молодые люди равнодушно взирают на обстановку дома-музея и бесценные полотна...
После смерти матери им приходится решать судьбу своего наследства. Оказывается, что оно имеет ценность только для Фредерика, который хочет оставить дом для семьи и детей. И дизайнер Эдриэн, и перспективный менеджер Жереми не хотят жить во Франции и нагружать себя лишним имуществом. Принимается коллективное решение принести наследство в дар Музею Орсэ…
IMDb || КиноПоиск-Тип релиза: BDRemux 1080p
Контейнер: MKV
Видео: MPEG-4 AVC Video, 1920x1080 at 23.976 fps, ~31989 kbps
Аудио#1: Russian: 48 kHz, AC3, 2.0 ch, 192 kbps |Многоголосый закадровый, Первый канал|
Аудио#2: French: 48 kHz, DTS-HD MA, 5.1 ch, 1561 kbps (DTS Core: 5.1 / 48 kHz / 1509 kbps / 24-bit)
Формат субтитров: softsub (SRT)
Сэмпл

MediaInfo

Complete name : O:\*трекер\Летнее время\Summer Hours.2008.CC.BRemux. rutracker.mkv
Format : Matroska
Format version : Version 2
File size : 26.0 GiB
Duration : 1h 43mn
Overall bit rate mode : Variable
Overall bit rate : 36.2 Mbps
Movie name : Summer Hours.2008.CC.BRemux. rutracker
Encoded date : UTC 2013-09-08 13:06:48
Writing application : mkvmerge v5.0.1 ('Es ist Sommer') built on Nov 6 2011 16:23:40
Writing library : libebml v1.2.2 + libmatroska v1.3.0
Video
ID : 1
Format : AVC
Format/Info : Advanced Video Codec
Format profile : High@L4.1
Format settings, CABAC : Yes
Format settings, ReFrames : 4 frames
Codec ID : V_MPEG4/ISO/AVC
Duration : 1h 43mn
Bit rate mode : Variable
Bit rate : 33.7 Mbps
Maximum bit rate : 37.0 Mbps
Width : 1 920 pixels
Height : 1 080 pixels
Display aspect ratio : 16:9
Frame rate : 23.976 fps
Color space : YUV
Chroma subsampling : 4:2:0
Bit depth : 8 bits
Scan type : Progressive
Bits/(Pixel*Frame) : 0.678
Stream size : 24.3 GiB (93%)
Title : Summer Hours.2008.CC.BRemux. rutracker
Language : French
Default : Yes
Forced : No
Color primaries : BT.709-5, BT.1361, IEC 61966-2-4, SMPTE RP177
Transfer characteristics : BT.709-5, BT.1361
Matrix coefficients : BT.709-5, BT.1361, IEC 61966-2-4 709, SMPTE RP177
Audio #1
ID : 2
Format : AC-3
Format/Info : Audio Coding 3
Mode extension : CM (complete main)
Codec ID : A_AC3
Duration : 1h 43mn
Bit rate mode : Constant
Bit rate : 192 Kbps
Channel(s) : 2 channels
Channel positions : Front: L R
Sampling rate : 48.0 KHz
Bit depth : 16 bits
Compression mode : Lossy
Stream size : 142 MiB (1%)
Language : Russian
Default : Yes
Forced : No
Audio #2
ID : 3
Format : DTS
Format/Info : Digital Theater Systems
Format profile : MA / Core
Codec ID : A_DTS
Duration : 1h 43mn
Bit rate mode : Variable
Bit rate : 1 561 Kbps / 1 510 Kbps
Channel(s) : 6 channels
Channel positions : Front: L C R, Side: L R, LFE
Sampling rate : 48.0 KHz
Bit depth : 24 bits
Compression mode : Lossless / Lossy
Language : French
Default : No
Forced : No
Text #1
ID : 4
Format : UTF-8
Codec ID : S_TEXT/UTF8
Codec ID/Info : UTF-8 Plain Text
Language : Russian
Default : No
Forced : No
Text #2
ID : 5
Format : UTF-8
Codec ID : S_TEXT/UTF8
Codec ID/Info : UTF-8 Plain Text
Language : English
Default : No
Forced : No
Menu
00:24:45.984 : en:Chapter01
00:28:44.556 : en:Chapter02
00:33:59.370 : en:Chapter03
00:40:59.456 : en:Chapter04
00:52:33.817 : en:Chapter05
01:00:56.486 : en:Chapter06
01:10:30.059 : en:Chapter07
01:14:42.644 : en:Chapter08
01:16:34.881 : en:Chapter09
01:19:26.595 : en:Chapter10
01:22:28.693 : en:Chapter11
01:29:29.155 : en:Chapter12
01:32:59.573 : en:Chapter13
01:43:04.970 : en:Chapter14

Скриншоты

Скачать

Скачать торрент!

Как скачивать? · Что такое торрент? · Рейтинг и ограничения

Сайт не распространяет и не хранит электронные версии произведений, а лишь предоставляет доступ к создаваемому пользователями каталогу ссылок на торрент-файлы, которые содержат только списки хеш-сумм

[Профиль] [ЛС]
Показать сообщения:    
Ответить на тему

Текущее время: Сегодня 23:47

Часовой пояс: GMT + 4



Вы не можете начинать темы
Вы не можете отвечать на сообщения
Вы не можете редактировать свои сообщения
Вы не можете удалять свои сообщения
Вы не можете голосовать в опросах
Вы не можете прикреплять файлы к сообщениям
Вы не можете скачивать файлы