Я плюю на ваши могилы 2 / I Spit On Your Grave 2 (Стивен Р. Монро / Steven R. Monroe) [2013, США, ужасы, триллер, криминал, HDRip] [UNRATED ] VO (den904)

Ответить на тему
 
Автор Сообщение

user ®

Стаж: 7 лет 7 месяцев

Сообщений: 20008

Пост Пост: #1 от 09-Сен-2013 01:15

[Цитировать]

Я плюю на ваши могилы 2 / I Spit On Your Grave 2 / UNRATED
Страна: США
Жанр: ужасы, триллер, криминал
Год выпуска: 2013
Продолжительность: 01:46:11
Перевод: Одноголосый закадровый (den904)
Cубтитры: нет
Оригинальная аудиодорожка: нет
Режиссер: Стивен Р. Монро / Steven R. Monroe
В ролях: Джемма Даллендер, Джо Эбсолом, Явор Бахаров, Александр Алексеев, Мэри Стокли, Майкл Диксон, Валентин Пелка, Питер Сильверлиф, Георг Златарев
Описание: Красавица Кэти только что переехала в Нью-Йорк, чтобы сделать карьеру модели. Но девичьи мечты о роскошной жизни разбиваются: ее насилуют, пытают, а вскоре похищают и увозят в непонятном направлении. Кэти оказывается одна в чужой стране, где ее почти что похоронят заживо. Чудом избежав смерти, девушка решает жестоко отомстить обидчикам...-
MPAA: R - Лицам до 17 лет обязательно присутствие взрослого-Сэмпл: http://multi-up.com/901494
Автор рипа: Odessit
Качество видео: HDRip (BDRip 720p [PHD])
Формат видео: AVI
Видео: 720x304 (2.37:1), 23.976 fps, XviD build 73 ~1753 kbps avg, 0.33 bit/pixel
Аудио: 48 kHz, AC3 Dolby Digital, 2/0 (L,R) ch, ~192 kbps

MediaInfo

Формат                                   : AVI
Формат/Информация                        : Audio Video Interleave
Размер файла                             : 1,45 Гбайт
Продолжительность                        : 1 ч. 46 м.
Общий поток                              : 1955 Кбит/сек
Название фильма                          : Ia.plyu.na.vashu.mogily.2013.L1.XviD.HDRip
Режиссёр                                 : Odessit
Программа кодирования                    : VirtualDubMod 1.5.10.3 | www.virtualdub-fr.org || (build 2550/release)
Видео
Идентификатор                            : 0
Формат                                   : MPEG-4 Visual
Профиль формата                          : Advanced Simple@L5
Параметр BVOP формата                    : 1
Параметр QPel формата                    : Нет
Параметр GMC формата                     : Без точки перехода
Параметр матрицы формата                 : Выборочная
Идентификатор кодека                     : XVID
Идентификатор кодека/Подсказка           : XviD
Продолжительность                        : 1 ч. 46 м.
Битрейт                                  : 1754 Кбит/сек
Ширина                                   : 720 пикселей
Высота                                   : 304 пикселя
Соотношение сторон                       : 2,35:1
Частота кадров                           : 23,976 кадра/сек
Цветовое пространство                    : YUV
Субдискретизация насыщенности            : 4:2:0
Битовая глубина                          : 8 бит
Тип развёртки                            : Прогрессивная
Метод сжатия                             : С потерями
Бит/(Пиксели*Кадры)                      : 0.334
Размер потока                            : 1,30 Гбайт (90%)
Библиотека кодирования                   : XviD 73
Аудио
Идентификатор                            : 1
Формат                                   : AC-3
Формат/Информация                        : Audio Coding 3
Расширение режима                        : CM (complete main)
Параметр Endianness формата              : Big
Идентификатор кодека                     : 2000
Продолжительность                        : 1 ч. 46 м.
Вид битрейта                             : Постоянный
Битрейт                                  : 192 Кбит/сек
Каналы                                   : 2 канала
Расположение каналов                     : Front: L R
Частота                                  : 48,0 КГц
Битовая глубина                          : 16 бит
Метод сжатия                             : С потерями
Размер потока                            : 146 Мбайт (10%)
Выравнивание                             : Разделение по промежуткам
Продолжительность промежутка             : 42  мс. (1,00 видеокадр)
Время предзагрузки промежутка            : 500  мс.

Скриншоты

Скачать

Скачать торрент!

Как скачивать? · Что такое торрент? · Рейтинг и ограничения

Сайт не распространяет и не хранит электронные версии произведений, а лишь предоставляет доступ к создаваемому пользователями каталогу ссылок на торрент-файлы, которые содержат только списки хеш-сумм

[Профиль] [ЛС]
Показать сообщения:    
Ответить на тему

Текущее время: Сегодня 10:11

Часовой пояс: GMT + 4



Вы не можете начинать темы
Вы не можете отвечать на сообщения
Вы не можете редактировать свои сообщения
Вы не можете удалять свои сообщения
Вы не можете голосовать в опросах
Вы не можете прикреплять файлы к сообщениям
Вы не можете скачивать файлы