Красный феникс / The Red Phoenix / Huo feng huang (Сюй Тяньжун / Tyrone Hsu Tien-Yung) [1978, Тайвань, боевые искусства, VHSRip] AVO (Сергей Кузнецов)

Ответить на тему
 
Автор Сообщение

user ®

Стаж: 11 лет

Сообщений: 15151

Пост Пост: #1 от 08-Сен-2013 22:05

[Цитировать]

Красный феникс / The Red Phoenix / Huo feng huang
Страна: Тайвань
Жанр: боевые искусства
Год выпуска: 1978
Продолжительность: 01:34:39
Перевод: Авторский (одноголосый закадровый) Сергей Кузнецов
Cубтитры: китайские
Режиссер: Сюй Тяньжун / Tyrone Hsu Tien-Yung
В ролях: Дэвид Чанг, Полли Куан, Юэ Хуа, Ло Лье, Кэ Шоулян, Ван Ся, Ли Даохун, Ван Сюн, Гао Фэй, Дай Лян, Гэ Тянь, Лун Шицзя
Описание: Ещё один забубенный кунг-фу боевик с участием великолепных актёров. Здесь полный набор - Ло Лье, Дэвид Чианг, Юэ Хуа, Блэки Ко, Джек Лун, Филлип Ко и конечно же Полли Шан Куан! Кто есть ху, а точнее - кто же злодей скрывающийся за маской красного феникса, предстоит узнать в процессе детективного мочилова.
Благодарность: За исходник благодарность выражается шурик 555.
Качество видео: VHSRip
Формат видео: AVI
Видео: 592x448 (1.32:1), 25 fps, XviD build 50 ~1930 kbps avg, 0.29 bit/pixel
Аудио: 48 kHz, MPEG Layer 3, 2 ch, ~128.00 kbps avg
Формат субтитров: hardsub (неотключаемые)

MediaInfo

Format : AVI
Format/Info : Audio Video Interleave
File size : 1,37 Гбайт
Duration : 1 ч. 34 м.
Overall bit rate : 2069 Кбит/сек
Writing application : VirtualDubMod 1.5.10.3 | www.virtualdub-fr.org || (build 2550/release)
Writing library : VirtualDubMod build 2550/release
Видео
ID : 0
Format : MPEG-4 Visual
Format profile : Advanced Simple@L5
Format settings, BVOP : 2
Format settings, QPel : Нет
Format settings, GMC : Без точки перехода
Format settings, Matrix : Default (MPEG)
Codec ID : XVID
Codec ID/Hint : XviD
Duration : 1 ч. 34 м.
Bit rate : 1931 Кбит/сек
Width : 592 пикселя
Height : 448 пикселей
Display aspect ratio : 4:3
Frame rate : 25,000 кадров/сек
Color space : YUV
Chroma subsampling : 4:2:0
Bit depth : 8 бит
Scan type : Прогрессивная
Compression mode : С потерями
Bits/(Pixel*Frame) : 0.291
Stream size : 1,28 Гбайт (93%)
Writing library : XviD 1.2.1 (UTC 2008-12-04)
Аудио
ID : 1
Format : MPEG Audio
Format version : Version 1
Format profile : Layer 3
Codec ID : 55
Codec ID/Hint : MP3
Duration : 1 ч. 34 м.
Bit rate mode : Постоянный
Bit rate : 128 Кбит/сек
Channel(s) : 2 канала
Sampling rate : 48,0 КГц
Compression mode : С потерями
Stream size : 86,7 Мбайт (6%)
Alignment : Соединение по промежуткам
Interleave, duration : 40 мс. (1,00 видеокадр)
Interleave, preload duration : 504 мс.
Writing library : LAME3.99r
Encoding settings : -m s -V 4 -q 2 -lowpass 17 -b 128

Скриншот c названием фильма

Скриншоты

Скачать

Скачать торрент! Красный феникс / The Red Phoenix / Huo feng huang (Сюй Тяньжун / Tyrone Hsu Tien-Yung) [1978, Тайвань, боевые искусства, VHSRip] AVO (Сергей Кузнецов)

Как скачивать? · Что такое торрент? · Рейтинг и ограничения

Сайт не распространяет и не хранит электронные версии произведений, а лишь предоставляет доступ к создаваемому пользователями каталогу ссылок на торрент-файлы, которые содержат только списки хеш-сумм

[Профиль] [ЛС]
Показать сообщения:    
Ответить на тему

Текущее время: Сегодня 16:08

Часовой пояс: GMT + 4



Вы не можете начинать темы
Вы не можете отвечать на сообщения
Вы не можете редактировать свои сообщения
Вы не можете удалять свои сообщения
Вы не можете голосовать в опросах
Вы не можете прикреплять файлы к сообщениям
Вы не можете скачивать файлы