Умопомрачительные фантазии Чарли Свона-третьего / A Glimpse Inside the Mind of Charles Swan III (Роман Коппола / Roman Coppola) [2012, США, комедия, мелодрама, BDRemux 1080p] Dub (R5) + DVO (Радистка Кэт и Штирлиц) + Original (Eng) + Sub (Rus / Eng)

Ответить на тему
 
Автор Сообщение

user ®

Стаж: 7 лет 7 месяцев

Сообщений: 20008

Пост Пост: #1 от 08-Сен-2013 22:05

[Цитировать]

Умопомрачительные фантазии Чарли Свона III / A Glimpse Inside the Mind of Charles Swan III
«Handsome. Brilliant. Heartbroken.»
- Страна: США
Студии: A24, American Zoetrope, The Directors Bureau
Жанр: комедия, мелодрама
Год выпуска: 2012
Продолжительность: 01:25:49
Перевод:
  • Профессиональный (дублированный) R5
  • Людительский (двухголосый закадровый) Радистка Кэт и Штирлиц
Cубтитры: русские, английские, английские SDH
Оригинальная аудиодорожка: английский-Режиссер: Роман Коппола / Roman Coppola
В ролях: Чарли Шин (Charlie Sheen), Джейсон Шварцман (Jason Schwartzman), Билл Мюррей (Bill Murray), Кэтрин Уинник (Katheryn Winnick), Патриция Аркетт (Patricia Arquette), Обри Плаза (Aubrey Plaza), Дермот Малруни (Dermot Mulroney), Мэри Элизабет Уинстэд (Mary Elizabeth Winstead) и др.-Описание: Чарли Свон-третий — сибарит и ловелас. У него собственное креативное агентство и известные друзья, а жизнь его легка и беззаботна. И главное — Чарли встретил, наконец, любовь всей своей жизни — прекрасную Ивону…
Но идиллия длилась недолго: Ивона находит в шкафу богатую коллекцию фотографий прошлых подружек Чарли и, не желая когда-то стать одной из них, уходит. Сердце Чарли Свона-третьего разбито. Спасением становятся эксцентричные фантасмагории, где он во всевозможных невероятных обстоятельствах снова сражается за свою возлюбленную. Сможет ли он вернуть прекрасную Ивону не только в своих умопомрачительных фантазиях, но и в реальной жизни?
- -Тип релиза: BDRemux 1080p [A Glimpse Inside the Mind of Charles Swan III 2012 1080p Bl-ray AVC DTS-HD MA 5.1-HDWinG]
Контейнер: MKV
Видео: MPEG-4 AVC Video / 17992 kbps / 1080p / 23,976 fps / 16:9 / High Profile 4.1
Аудио #1: Russian: 48 kHz, AC3, 3/2 (L,C,R,l,r) + LFE ch, ~448.00 kbps avg - [Dub, R5]
Аудио #2: Russian: 48 kHz, AC3, 2/0 (L,R), ~192.00 kbps avg - [DVO, Радистка Кэт и Штирлиц]
Аудио #3: English: DTS-HD Master Audio 5.1 / (48 kHz / 3412 kbps / 24-bit) (DTS Core: 5.1 / 48 kHz / 1509 kbps / 24-bit) - [Original]
Аудио #4: English: 48 kHz, AC3, 2/0 (L,R), ~224.00 kbps avg - [Commentary with Writer / Director Roman Coppola]
Формат субтитров: softsub (SRT)
Чаптеры: Сохранены оригинальные чаптеры с Blu-Ray
-

Скриншоты


-

MediaInfo

Format                                   : Matroska
Format version                           : Version 2
File size                                : 13.3 GiB
Duration                                 : 1h 25mn
Overall bit rate mode                    : Variable
Overall bit rate                         : 22.1 Mbps
Movie name                               : Arifis
Encoded date                             : UTC 2013-09-07 13:14:42
Writing application                      : mkvmerge v5.2.1 ('A Far Off Place') built on Jan  2 2012 23:21:10
Writing library                          : libebml v1.2.3 + libmatroska v1.3.0
Video
ID                                       : 1
Format                                   : AVC
Format/Info                              : Advanced Video Codec
Format profile                           : High@L4.1
Format settings, CABAC                   : Yes
Format settings, ReFrames                : 4 frames
Codec ID                                 : V_MPEG4/ISO/AVC
Duration                                 : 1h 25mn
Bit rate mode                            : Variable
Maximum bit rate                         : 38.0 Mbps
Width                                    : 1 920 pixels
Height                                   : 1 080 pixels
Display aspect ratio                     : 16:9
Frame rate mode                          : Constant
Frame rate                               : 23.976 fps
Color space                              : YUV
Chroma subsampling                       : 4:2:0
Bit depth                                : 8 bits
Scan type                                : Progressive
Title                                    : A Glimpse Inside the Mind of Charles Swan III (Arifis)
Default                                  : Yes
Forced                                   : No
Audio #1
ID                                       : 2
Format                                   : AC-3
Format/Info                              : Audio Coding 3
Mode extension                           : CM (complete main)
Format settings, Endianness              : Big
Codec ID                                 : A_AC3
Duration                                 : 1h 25mn
Bit rate mode                            : Constant
Bit rate                                 : 448 Kbps
Channel(s)                               : 6 channels
Channel positions                        : Front: L C R, Side: L R, LFE
Sampling rate                            : 48.0 KHz
Bit depth                                : 16 bits
Compression mode                         : Lossy
Stream size                              : 275 MiB (2%)
Title                                    : AC3 5.1 @ 448 kbps - Dub, R5
Language                                 : Russian
Default                                  : Yes
Forced                                   : No
Audio #2
ID                                       : 3
Format                                   : AC-3
Format/Info                              : Audio Coding 3
Mode extension                           : CM (complete main)
Format settings, Endianness              : Big
Codec ID                                 : A_AC3
Duration                                 : 1h 25mn
Bit rate mode                            : Constant
Bit rate                                 : 192 Kbps
Channel(s)                               : 2 channels
Channel positions                        : Front: L R
Sampling rate                            : 48.0 KHz
Bit depth                                : 16 bits
Compression mode                         : Lossy
Stream size                              : 118 MiB (1%)
Title                                    : AC3 2.0 @ 192 kbps - DVO, Радистка Кэт и Штирлиц
Language                                 : Russian
Default                                  : No
Forced                                   : No
Audio #3
ID                                       : 4
Format                                   : DTS
Format/Info                              : Digital Theater Systems
Format profile                           : MA / Core
Mode                                     : 16
Format settings, Endianness              : Big
Codec ID                                 : A_DTS
Duration                                 : 1h 25mn
Bit rate mode                            : Variable
Bit rate                                 : Unknown / 1 509 Kbps
Channel(s)                               : 6 channels
Channel positions                        : Front: L C R, Side: L R, LFE
Sampling rate                            : 48.0 KHz
Bit depth                                : 24 bits
Compression mode                         : Lossless / Lossy
Title                                    : DTS-HD MA 5.1 Original @ 3412 kbps
Language                                 : English
Default                                  : No
Forced                                   : No
Audio #4
ID                                       : 5
Format                                   : AC-3
Format/Info                              : Audio Coding 3
Mode extension                           : CM (complete main)
Format settings, Endianness              : Big
Codec ID                                 : A_AC3
Duration                                 : 1h 25mn
Bit rate mode                            : Constant
Bit rate                                 : 224 Kbps
Channel(s)                               : 2 channels
Channel positions                        : Front: L R
Sampling rate                            : 48.0 KHz
Bit depth                                : 16 bits
Compression mode                         : Lossy
Stream size                              : 138 MiB (1%)
Title                                    : AC3 2.0 @ 224 kbps - Commentary with Writer / Director Roman Coppola
Language                                 : English
Default                                  : No
Forced                                   : No
Text #1
ID                                       : 6
Format                                   : UTF-8
Codec ID                                 : S_TEXT/UTF8
Codec ID/Info                            : UTF-8 Plain Text
Title                                    : Full Rus
Language                                 : Russian
Default                                  : No
Forced                                   : No
Text #2
ID                                       : 7
Format                                   : UTF-8
Codec ID                                 : S_TEXT/UTF8
Codec ID/Info                            : UTF-8 Plain Text
Title                                    : Full Eng
Language                                 : English
Default                                  : No
Forced                                   : No
Text #3
ID                                       : 8
Format                                   : UTF-8
Codec ID                                 : S_TEXT/UTF8
Codec ID/Info                            : UTF-8 Plain Text
Title                                    : SDH Eng
Language                                 : English
Default                                  : No
Forced                                   : No
Menu
00:00:00.000                             : :Chapter 01
00:05:41.632                             : :Chapter 02
00:11:51.627                             : :Chapter 03
00:15:13.120                             : :Chapter 04
00:31:29.345                             : :Chapter 05
00:39:17.772                             : :Chapter 06
00:44:12.566                             : :Chapter 07
00:52:04.913                             : :Chapter 08
00:58:05.982                             : :Chapter 09
01:03:44.153                             : :Chapter 10
01:15:28.941                             : :Chapter 11
01:19:02.571                             : :Chapter 12
-
Скачать

Скачать торрент!

Как скачивать? · Что такое торрент? · Рейтинг и ограничения

Сайт не распространяет и не хранит электронные версии произведений, а лишь предоставляет доступ к создаваемому пользователями каталогу ссылок на торрент-файлы, которые содержат только списки хеш-сумм

[Профиль] [ЛС]
Показать сообщения:    
Ответить на тему

Текущее время: Сегодня 19:27

Часовой пояс: GMT + 4



Вы не можете начинать темы
Вы не можете отвечать на сообщения
Вы не можете редактировать свои сообщения
Вы не можете удалять свои сообщения
Вы не можете голосовать в опросах
Вы не можете прикреплять файлы к сообщениям
Вы не можете скачивать файлы