Отвязные каникулы / Spring Breakers (Хармони Корин / Harmony Korine) [2012, США, драма, комедия, BDRip 720p] [US Transfer] Dub + VO (А. Матвеев) + Original (Eng) + Subs (Rus, Eng)

Ответить на тему
 
Автор Сообщение

user ®

Стаж: 7 лет 7 месяцев

Сообщений: 20008

Пост Пост: #1 от 08-Сен-2013 22:05

[Цитировать]

Отвязные каникулы / Spring Breakers

-
-Страна: США
Студия: Division Films, Iconoclast, Muse Productions, O' Salvation, RabbitBandini Productions, Radar Pictures Inc.
Жанр: драма, комедия
Год выпуска: 2012
Продолжительность: 01:33:58--Перевод 1: Профессиональный (дублированный) Blu-ray
Перевод 2: Одноголосый закадровый Алексей "Doctor_Joker" Матвеев по переводу MartinaG
Cубтитры: русские (forced, full - MartinaG, voronine), английские (full, SDH)
Оригинальная аудиодорожка: английский--Режиссер: Хармони Корин / Harmony Korine
В ролях: Джеймс Франко, Эшли Бенсон, Ванесса Энн Хадженс, Селена Гомес, Рэйчел Корин, Гуччи Мэйн, Хизер Моррис, Эшли Лендцьон, Эмма Холцер, Ли Ирби...-
-
--Описание: Четыре ученицы колледжа были лучшими подругами, начиная со школьной скамьи. Теперь они живут в скучном общежитии и жаждут приключений. Впереди весенние каникулы, и очень хочется провести их весело и незабываемо. Девчонки решают подзаработать денег, чтобы хватило оторваться по полной.
Правда, способ заработка денег героини выбирают не совсем обычный. Судьба сводит их с одним весьма сомнительным типом, торговцем наркотиками и оружием, и это знакомство обещает предоставить им массу острых ощущений, на которые они уже не могли и надеяться. Как далеко способны зайти девушки, чтобы получить каникулы, которые, уж будьте уверены, они никогда не забудут?--imdb | kinopoisk | Сэмпл | --Тип релиза: BDRip 720p [Spring Breakers 2012 720p BluRay DTS x264-PIS]
Контейнер: MKV
Видео: MPEG-4 AVC / 7877 kbps / 1280x534 / 23,976 fps / 2,40:1 / High Profile 4.1
Аудио 1: DTS / 5.1 / 48 kHz / 1510 kbps / 24 bits |Dub|
Аудио 2: DTS / 5.1 / 48 kHz / 1510 kbps / 24 bits |VO|
Аудио 3: DTS / 5.1 / 48 kHz / 1510 kbps / 24 bits |original|
Аудио 4: AC3 / 2.0 / 48 kHz / 224 kbps / 16 bits |Commentary with Writer/Director Harmony Korine|
Формат субтитров: softsub [SRT]

MediaInfo

Общее
Уникальный идентификатор : 202742949398190892552116213668500569718 (0x9886DF296E53093D9C131E9550257E76)
Полное имя : G:\HD\Отвязные каникулы.2012.BDRip.(720p).mkv
Формат : Matroska
Версия формата : Version 2
Размер файла : 8,46 Гбайт
Продолжительность : 1 ч. 33 м.
Общий поток : 12,9 Мбит/сек
Дата кодирования : UTC 2013-09-07 07:17:57
Программа кодирования : mkvmerge v5.8.0 ('No Sleep / Pillow') built on Sep 2 2012 15:37:04
Библиотека кодирования : libebml v1.2.3 + libmatroska v1.3.0
Attachment : Yes
Видео
Идентификатор : 1
Формат : AVC
Формат/Информация : Advanced Video Codec
Профиль формата : High@L4.1
Параметр CABAC формата : Да
Параметр ReFrames формата : 12 кадров
Идентификатор кодека : V_MPEG4/ISO/AVC
Продолжительность : 1 ч. 33 м.
Битрейт : 7877 Кбит/сек
Ширина : 1280 пикселей
Высота : 534 пикселя
Соотношение сторон : 2,40:1
Соотношение сторон в оригинале : 2,40:1
Режим частоты кадров : Постоянный
Частота кадров : 23,976 кадра/сек
Цветовое пространство : YUV
Субдискретизация насыщенности : 4:2:0
Битовая глубина : 8 бит
Тип развёртки : Прогрессивная
Бит/(Пиксели*Кадры) : 0.481
Размер потока : 5,17 Гбайт (61%)
Заголовок : Spring Breakers 2012 720p BluRay DTS x264-PIS
Библиотека кодирования : x264 core 133 r2334 a3ac64b
Настройки программы : cabac=1 / ref=12 / deblock=1:-3:-3 / analyse=0x3:0x133 / me=tesa / subme=10 / psy=1 / psy_rd=1.13:0.00 / mixed_ref=1 / me_range=16 / chroma_me=1 / trellis=2 / 8x8dct=1 / cqm=0 / deadzone=21,11 / fast_pskip=0 / chroma_qp_offset=-2 / threads=12 / lookahead_threads=2 / sliced_threads=0 / nr=0 / decimate=1 / interlaced=0 / bluray_compat=0 / constrained_intra=0 / bframes=8 / b_pyramid=2 / b_adapt=2 / b_bias=0 / direct=3 / weightb=1 / open_gop=0 / weightp=2 / keyint=250 / keyint_min=23 / scenecut=40 / intra_refresh=0 / rc=crf / mbtree=0 / crf=16.6 / qcomp=0.75 / qpmin=0 / qpmax=69 / qpstep=4 / ip_ratio=1.40 / pb_ratio=1.30 / aq=1:0.65
Язык : English
Default : Да
Forced : Нет
Коэффициенты матрицы : BT.709
Аудио #1
Идентификатор : 2
Формат : DTS
Формат/Информация : Digital Theater Systems
Режим : 16
Параметр Endianness формата : Big
Идентификатор кодека : A_DTS
Продолжительность : 1 ч. 33 м.
Вид битрейта : Постоянный
Битрейт : 1509 Кбит/сек
Каналы : 6 каналов
Расположение каналов : Front: L C R, Side: L R, LFE
Частота : 48,0 КГц
Битовая глубина : 24 бит
Метод сжатия : С потерями
Размер потока : 1014 Мбайт (12%)
Заголовок : Dub, Blu-ray Rus
Язык : Russian
Default : Нет
Forced : Нет
Аудио #2
Идентификатор : 3
Формат : DTS
Формат/Информация : Digital Theater Systems
Режим : 16
Параметр Endianness формата : Big
Идентификатор кодека : A_DTS
Продолжительность : 1 ч. 33 м.
Вид битрейта : Постоянный
Битрейт : 1509 Кбит/сек
Каналы : 6 каналов
Расположение каналов : Front: L C R, Side: L R, LFE
Частота : 48,0 КГц
Битовая глубина : 24 бит
Метод сжатия : С потерями
Размер потока : 1014 Мбайт (12%)
Заголовок : Doctor_Joker
Язык : Russian
Default : Да
Forced : Нет
Аудио #3
Идентификатор : 4
Формат : DTS
Формат/Информация : Digital Theater Systems
Режим : 16
Параметр Endianness формата : Big
Идентификатор кодека : A_DTS
Продолжительность : 1 ч. 33 м.
Вид битрейта : Постоянный
Битрейт : 1509 Кбит/сек
Каналы : 6 каналов
Расположение каналов : Front: L C R, Side: L R, LFE
Частота : 48,0 КГц
Битовая глубина : 24 бит
Метод сжатия : С потерями
Размер потока : 1014 Мбайт (12%)
Язык : English
Default : Нет
Forced : Нет
Аудио #4
Идентификатор : 5
Формат : AC-3
Формат/Информация : Audio Coding 3
Профиль формата : Dolby Digital
Расширение режима : CM (complete main)
Параметр Endianness формата : Big
Идентификатор кодека : A_AC3
Продолжительность : 1 ч. 33 м.
Вид битрейта : Постоянный
Битрейт : 224 Кбит/сек
Каналы : 2 канала
Расположение каналов : Front: L R
Частота : 48,0 КГц
Битовая глубина : 16 бит
Метод сжатия : С потерями
Размер потока : 151 Мбайт (2%)
Заголовок : Commentary with Writer/Director Harmony Korine
Язык : English
Default : Нет
Forced : Нет
Текст #1
Идентификатор : 6
Формат : UTF-8
Идентификатор кодека : S_TEXT/UTF8
Идентификатор кодека/Информация : UTF-8 Plain Text
Заголовок : forced, MartinaG
Язык : Russian
Default : Да
Forced : Нет
Текст #2
Идентификатор : 7
Формат : UTF-8
Идентификатор кодека : S_TEXT/UTF8
Идентификатор кодека/Информация : UTF-8 Plain Text
Заголовок : full, MartinaG
Язык : Russian
Default : Нет
Forced : Нет
Текст #3
Идентификатор : 8
Формат : UTF-8
Идентификатор кодека : S_TEXT/UTF8
Идентификатор кодека/Информация : UTF-8 Plain Text
Заголовок : по дубляжу с правкой от voronine
Язык : Russian
Default : Нет
Forced : Нет
Текст #4
Идентификатор : 9
Формат : UTF-8
Идентификатор кодека : S_TEXT/UTF8
Идентификатор кодека/Информация : UTF-8 Plain Text
Заголовок : full
Язык : English
Default : Нет
Forced : Нет
Текст #5
Идентификатор : 10
Формат : UTF-8
Идентификатор кодека : S_TEXT/UTF8
Идентификатор кодека/Информация : UTF-8 Plain Text
Заголовок : SDH
Язык : English
Default : Нет
Forced : Нет
Меню
00:00:00.000 : :Chapter 01
00:04:41.656 : :Chapter 02
00:10:06.856 : :Chapter 03
00:18:26.563 : :Chapter 04
00:23:14.434 : :Chapter 05
00:31:13.830 : :Chapter 06
00:37:22.865 : :Chapter 07
00:43:59.386 : :Chapter 08
00:46:01.633 : :Chapter 09
00:51:01.099 : :Chapter 10
00:55:14.060 : :Chapter 11
01:03:44.529 : :Chapter 12
01:10:49.453 : :Chapter 13
01:14:46.815 : :Chapter 14
01:18:30.330 : :Chapter 15
01:22:54.844 : :Chapter 16

Скриншоты


Дополнительно

Спасибо IRONCLUB за дубляж.
Озвучка Алексея Матвеева доступна, благодаря: kidman644, qwertyuiopaspas, rikkibobbi, Crunch_SL, Zohan_dvir
Работа со звуком — perevodman.
Торент-файл перезалит 08.09.2013. Добавлен перевод А. Матвеева
Скачать

Скачать торрент!

Как скачивать? · Что такое торрент? · Рейтинг и ограничения

Сайт не распространяет и не хранит электронные версии произведений, а лишь предоставляет доступ к создаваемому пользователями каталогу ссылок на торрент-файлы, которые содержат только списки хеш-сумм

[Профиль] [ЛС]
Показать сообщения:    
Ответить на тему

Текущее время: Сегодня 15:55

Часовой пояс: GMT + 4



Вы не можете начинать темы
Вы не можете отвечать на сообщения
Вы не можете редактировать свои сообщения
Вы не можете удалять свои сообщения
Вы не можете голосовать в опросах
Вы не можете прикреплять файлы к сообщениям
Вы не можете скачивать файлы