Кровью и потом: Анаболики / Pain & Gain (Майкл Бэй / Michael Bay) [2013, США, Криминал, комедия, триллер, боевик, BDRip 1080p] Dub + Sub Rus + Original Eng

Ответить на тему
 
Автор Сообщение

user ®

Стаж: 7 лет 7 месяцев

Сообщений: 20008

Пост Пост: #1 от 08-Сен-2013 22:05

[Цитировать]

-Кровью и потом: Анаболики / Pain & Gain-Страна: США
Студия: Paramount Pictures
Жанр: Криминал, комедия, триллер, боевик
Год выпуска: 2013
Продолжительность: 02:09:36-Перевод: Профессиональный (дублированный)
Перевод 2: Одноголосый закадровый zamez ([url=http://***/forum/viewtopic.php?t=4428265]отдельной раздачей[/url])
Cубтитры: русские , английские
Оригинальная аудиодорожка: английский-Режиссер: Майкл Бэй / Michael Bay
В ролях: Марк Уолберг, Дуэйн Джонсон, Энтони Маки, Эд Харрис, Тони Шэлуб, Кен Жонг, Иоланта Кабау ван Касберген, Виорика Пинеда, Роб Кордри, Ребел Уилсон-Описание: Однажды тренеру по фитнесу надоело ходить в трениках. Он решил круто изменить свою судьбу и разбогатеть. Нашел двух других незадачливых качков и предложил им план похищения своего клиента-миллионера. Но если в организме мышц больше, чем мозгов, то даже самый лучший план, подсмотренный в экшен-боевике, может не сработать…-Сэмпл: http://yadi.sk/d/P7W1neLs8u2Ea-Тип релиза: BDRip 1080p
Контейнер: MKV
Видео: MPEG-4 AVC Video 15924 Kbps 1920x800p / 23.976 fps / High Profile 4.1
Аудио: DTS Audio Russian 5.1 / 48 kHz / 1509 kbps / 16-bit | Дубляж
Аудио 2: Dolby Digital Audio Russian 5.1 / 48 kHz / 384 kbps | Замез - [url=http://***/forum/viewtopic.php?t=4428265]отдельной раздачей[/url]
Аудио 3: DTS Audio English 5.1 / 48 kHz / 1509 kbps / 24-bit
Формат субтитров: softsub (SRT)

Видеоряд от EbP

General informationRELEASE NAME.: Pain.and.Gain.2013.1080p.BluRay.x264-EbPRELEASE DATE.: 15/Aug/2013RELEASE SIZE.: 15.0 GBRUNTIME......: 2:09:35VIDEO CODEC..: x264, 2-pass, L4.1FRAMERATE....: 23.976 fpsBITRATE......: 15924 KbpsRESOLUTION...: 1920x800AUDIO .......: English Dolby Digital Audio 5.1 @ 640 Kbps.SUBTITLES....: English, Czech, French, Greek Spanish, VietnameseCHAPTER......: YesSOURCE.......: Pain and Gain 2013 COMPLETE BLURAY-PCHSource vs EbP



MI

General
Complete name                    : X:\  -= Фильмы =-\Кровью и потом. Анаболики (2013. Pain & Gain) 1080p.mkv
Format                           : Matroska
File size                        : 17.1 GiB
Duration                         : 2h 9mn
Overall bit rate                 : 18.9 Mbps
Movie name                       : Release for RuTracker
Encoded date                     : UTC 2013-09-08 11:46:48
Writing application              : mkvmerge v4.9.1 ('Ich will') сборка от Jul 11 2011 23:53:15
Writing library                  : libebml v1.2.1 + libmatroska v1.1.1
Video
ID                               : 1
Format                           : AVC
Format/Info                      : Advanced Video Codec
Format profile                   : High@L4.1
Format settings, CABAC           : Yes
Format settings, ReFrames        : 5 frames
Format settings, GOP             : N=15
Muxing mode                      : Container profile=Unknown@4.1
Codec ID                         : V_MPEG4/ISO/AVC
Duration                         : 2h 9mn
Bit rate                         : 15.9 Mbps
Width                            : 1 920 pixels
Height                           : 800 pixels
Display aspect ratio             : 2.40:1
Frame rate                       : 23.976 fps
Color space                      : YUV
Chroma subsampling               : 4:2:0
Bit depth                        : 8 bits
Scan type                        : Progressive
Bits/(Pixel*Frame)               : 0.432
Stream size                      : 14.1 GiB (82%)
Title                            : Pain.and.Gain.2013.1080p.BluRay.x264-EbP
Writing library                  : x264 core 135 r2345 f0c1c53
Encoding settings                : cabac=1 / ref=5 / deblock=1:-3:-3 / analyse=0x3:0x113 / me=umh / subme=11 / psy=1 / psy_rd=1.05:0.00 / mixed_ref=1 / me_range=64 / chroma_me=1 / trellis=2 / 8x8dct=1 / cqm=0 / deadzone=21,11 / fast_pskip=0 / chroma_qp_offset=-2 / threads=18 / lookahead_threads=3 / sliced_threads=0 / nr=0 / decimate=0 / interlaced=0 / bluray_compat=0 / constrained_intra=0 / bframes=9 / b_pyramid=2 / b_adapt=2 / b_bias=0 / direct=3 / weightb=1 / open_gop=0 / weightp=2 / keyint=240 / keyint_min=23 / scenecut=40 / intra_refresh=0 / rc_lookahead=60 / rc=2pass / mbtree=0 / bitrate=15924 / ratetol=1.0 / qcomp=0.60 / qpmin=0 / qpmax=69 / qpstep=4 / cplxblur=20.0 / qblur=0.5 / vbv_maxrate=62500 / vbv_bufsize=78125 / nal_hrd=none / ip_ratio=1.40 / pb_ratio=1.30 / aq=2:0.80
Language                         : English
Audio #1
ID                               : 2
Format                           : DTS
Format/Info                      : Digital Theater Systems
Codec ID                         : A_DTS
Duration                         : 2h 9mn
Bit rate mode                    : Constant
Bit rate                         : 1 510 Kbps
Channel(s)                       : 6 channels
Channel positions                : Front: L C R, Side: L R, LFE
Sampling rate                    : 48.0 KHz
Bit depth                        : 16 bits
Stream size                      : 1.37 GiB (8%)
Title                            : Dub
Language                         : Russian
Audio #2
ID                               : 3
Format                           : DTS
Format/Info                      : Digital Theater Systems
Codec ID                         : A_DTS
Duration                         : 2h 9mn
Bit rate mode                    : Constant
Bit rate                         : 1 510 Kbps
Channel(s)                       : 6 channels
Channel positions                : Front: L C R, Side: L R, LFE
Sampling rate                    : 48.0 KHz
Bit depth                        : 24 bits
Stream size                      : 1.37 GiB (8%)
Language                         : English
Text #1
ID                               : 4
Format                           : UTF-8
Codec ID                         : S_TEXT/UTF8
Codec ID/Info                    : UTF-8 Plain Text
Language                         : Russian
Text #2
ID                               : 5
Format                           : UTF-8
Codec ID                         : S_TEXT/UTF8
Codec ID/Info                    : UTF-8 Plain Text
Language                         : English
Text #3
ID                               : 6
Format                           : UTF-8
Codec ID                         : S_TEXT/UTF8
Codec ID/Info                    : UTF-8 Plain Text
Title                            : SDH
Language                         : English
Menu
00:00:00.000                     : en:00:00:00.000
00:02:34.654                     : en:00:02:34.654
00:09:33.990                     : en:00:09:33.990
00:16:08.676                     : en:00:16:08.676
00:22:05.658                     : en:00:22:05.658
00:25:50.841                     : en:00:25:50.841
00:32:45.505                     : en:00:32:45.505
00:38:52.789                     : en:00:38:52.789
00:46:19.652                     : en:00:46:19.652
00:51:40.973                     : en:00:51:40.973
00:58:11.738                     : en:00:58:11.738
01:04:03.548                     : en:01:04:03.548
01:10:32.311                     : en:01:10:32.311
01:16:17.281                     : en:01:16:17.281
01:21:20.542                     : en:01:21:20.542
01:29:00.085                     : en:01:29:00.085
01:37:06.029                     : en:01:37:06.029
01:42:17.715                     : en:01:42:17.715
01:49:10.461                     : en:01:49:10.461
01:56:34.487                     : en:01:56:34.487
02:01:42.295                     : en:02:01:42.295
  • thx sergey_n
  • За русские сабы спасибо voronine
Скачать

Скачать торрент!

Как скачивать? · Что такое торрент? · Рейтинг и ограничения

Сайт не распространяет и не хранит электронные версии произведений, а лишь предоставляет доступ к создаваемому пользователями каталогу ссылок на торрент-файлы, которые содержат только списки хеш-сумм

[Профиль] [ЛС]
Показать сообщения:    
Ответить на тему

Текущее время: Сегодня 02:28

Часовой пояс: GMT + 4



Вы не можете начинать темы
Вы не можете отвечать на сообщения
Вы не можете редактировать свои сообщения
Вы не можете удалять свои сообщения
Вы не можете голосовать в опросах
Вы не можете прикреплять файлы к сообщениям
Вы не можете скачивать файлы