Красная линия / Red Line (Роберт Кирбюсон / Robert Kirbyson) [2013, США, триллер, DVB] DVO (НТВ+)

Ответить на тему
 
Автор Сообщение

user ®

Стаж: 7 лет 7 месяцев

Сообщений: 20008

Пост Пост: #1 от 08-Сен-2013 22:05

[Цитировать]

Красная линия / Red Line- Страна: США
Жанр: триллер
Год выпуска: 2013
Продолжительность: 01:23:19
Перевод: Профессиональный (двухголосый закадровый) НТВ+
Cубтитры: нет
Оригинальная аудиодорожка: нет
Режиссер: Роберт Кирбюсон / Robert Kirbyson
В ролях: Николь Гэйл Андерсон, Джон Биллингсли, Кунал Шарма, Кевин Сайзмор, Джозеф Уильямсон, Марк Сауль, Кина Фергюсон, Рене Слай, Ким Джексон, Анна Маганини
Описание: Поезд метро делает аварийную остановку в туннеле, среди пассажиров есть пострадавшие. Пытаясь выяснить причину остановки, уцелевшие пассажиры вскоре сталкиваются с еще большей опасностью...
Качество видео: DVB by BS666 Сэмпл
Формат видео: TS
Видео: MPEG2 | 720x576@1024x576 (16:9) | ~1 623 Kbps | 25.000 fps | ~0.157 bits/pix
Аудио: AC3 | 48 KHz | 5.1 (6ch) | 384 kbps

MediaInfo

General
Идентификатор : 1 (0x1)
Полное имя : E:\REC\НТВ+\Red.Line.2013.DVB.MPEG2.DD5.1-BS666.ts
Формат : MPEG-TS
Размер файла : 1.23 GiB
Продолжительность : 1h 23mn
Режим общего битрейта : Variable
Общий поток : 2 116 Kbps
Video
Идентификатор : 322 (0x142)
Идентификатор меню : 1 (0x1)
Формат : MPEG Video
Версия формата : Version 2
Профиль формата : Main@Main
Параметр BVOP формата : Yes
Параметр матрицы формата : Custom
Параметр GOP формата : Variable
Идентификатор кодека : 2
Продолжительность : 1h 23mn
Вид битрейта : Variable
Битрейт : 1 623 Kbps
Максимальный битрейт : 15.0 Mbps
Ширина : 720 pixels
Высота : 576 pixels
Соотношение сторон : 16:9
Частота кадров : 25.000 fps
Стандарт вещания : PAL
Цветовое пространство : YUV
Субдискретизация насыщенности : 4:2:0
Битовая глубина : 8 bits
Тип развёртки : Interlaced
Порядок развёртки : Top Field First
Метод сжатия : Lossy
Бит/(Пиксели*Кадры) : 0.157
Размер потока : 967 MiB (77%)
Audio
Идентификатор : 435 (0x1B3)
Идентификатор меню : 1 (0x1)
Формат : AC-3
Формат/Информация : Audio Coding 3
Расширение режима : CM (complete main)
Параметр Endianness формата : Big
Идентификатор кодека : 6
Продолжительность : 1h 23mn
Вид битрейта : Constant
Битрейт : 384 Kbps
Каналы : 6 channels
Расположение каналов : Front: L C R, Side: L R, LFE
Частота : 48.0 KHz
Битовая глубина : 16 bits
Метод сжатия : Lossy
Размер потока : 229 MiB (18%)
Язык : Russian

Скриншот c названием фильма

Скриншоты

Скачать

Скачать торрент!

Как скачивать? · Что такое торрент? · Рейтинг и ограничения

Сайт не распространяет и не хранит электронные версии произведений, а лишь предоставляет доступ к создаваемому пользователями каталогу ссылок на торрент-файлы, которые содержат только списки хеш-сумм

[Профиль] [ЛС]
Показать сообщения:    
Ответить на тему

Текущее время: Сегодня 08:10

Часовой пояс: GMT + 4



Вы не можете начинать темы
Вы не можете отвечать на сообщения
Вы не можете редактировать свои сообщения
Вы не можете удалять свои сообщения
Вы не можете голосовать в опросах
Вы не можете прикреплять файлы к сообщениям
Вы не можете скачивать файлы