Дневной свет / Daglicht (Дидерик Ван Ружен / Diederik Van Rooijen) [2013, Нидерланды, боевик, триллер, DVDRip] VO

Ответить на тему
 
Автор Сообщение

user ®

Стаж: 7 лет 7 месяцев

Сообщений: 20008

Пост Пост: #1 от 08-Сен-2013 12:35

[Цитировать]

Дневной свет / Daglicht
Страна: Нидерланды
Жанр: боевик, триллер
Год выпуска: 2013
Продолжительность: 01:50:14
Перевод: Одноголосый закадровый [Вадим Белов]
Cубтитры: нет
Оригинальная аудиодорожка: нет-Режиссер: Дидерик Ван Ружен / Diederik Van Rooijen
В ролях: Дерек де Линт, Федя ван Хюэт, Моник ван де Вен, Анжела Схяйф, Виктор Лёв, Тийс Ромер, Маттео ван дер Грийн, Йап Спийкерс, Майк Реус, Сабина Соэтанто-Описание: Успешный адвокат Ирис узнает, что её мать всю жизнь скрывала от неё один большой секрет. Оказывается, у неё есть старший брат, о существовании которого она даже не подозревала. Рэй, страдающий аутизмом, много лет назад был осужден за жестокое убийство, и теперь находится в судебно-психиатрической клинике. Проникнувшись сочувствием к своему брату, Ирис решает ему помочь, но в поисках истины ей придется столкнуться с такими препятствиями, которые изменят её жизнь навсегда.-Доп. информация: премьера (мир) 11 апреля 2013
-Качество видео: DVDRip
Формат видео: AVI
Видео: XviD, 720x304 (2,35:1 ), 1 437 Kbps, 25 fps
Аудио: AC-3, 48.0 KHz, 6 ch, 448 Kbps

MediaInfo

Общее
Полное имя : E:\Dnevnoi svet.2013.L1.DVDRip.1400mb.avi
Формат : AVI
Формат/Информация : Audio Video Interleave
Размер файла : 1,46 Гбайт
Продолжительность : 1 ч. 50 м.
Общий поток : 1893 Кбит/сек
Программа кодирования : VirtualDubMod 1.5.10.2 (build 2540/release)
Библиотека кодирования : VirtualDubMod build 2540/release
Видео
Идентификатор : 0
Формат : MPEG-4 Visual
Профиль формата : Advanced Simple@L5
Параметр BVOP формата : 1
Параметр QPel формата : Нет
Параметр GMC формата : Без точки перехода
Параметр матрицы формата : Default (MPEG)
Идентификатор кодека : XVID
Идентификатор кодека/Подсказка : XviD
Продолжительность : 1 ч. 50 м.
Битрейт : 1437 Кбит/сек
Ширина : 720 пикселей
Высота : 304 пикселя
Соотношение сторон : 2,35:1
Частота кадров : 25,000 кадров/сек
Цветовое пространство : YUV
Субдискретизация насыщенности : 4:2:0
Битовая глубина : 8 бит
Тип развёртки : Прогрессивная
Метод сжатия : С потерями
Бит/(Пиксели*Кадры) : 0.263
Размер потока : 1,11 Гбайт (76%)
Библиотека кодирования : XviD 1.2.1 (UTC 2008-12-04)
Аудио
Идентификатор : 1
Формат : AC-3
Формат/Информация : Audio Coding 3
Расширение режима : CM (complete main)
Параметр Endianness формата : Big
Идентификатор кодека : 2000
Продолжительность : 1 ч. 50 м.
Вид битрейта : Постоянный
Битрейт : 448 Кбит/сек
Каналы : 6 каналов
Расположение каналов : Front: L C R, Side: L R, LFE
Частота : 48,0 КГц
Битовая глубина : 16 бит
Метод сжатия : С потерями
Размер потока : 353 Мбайт (24%)
Выравнивание : Разделение по промежуткам
Продолжительность промежутка : 69 мс. (1,71 видеокадра)
Время предзагрузки промежутка : 548 мс.

Скриншоты

Скачать

Скачать торрент!

Как скачивать? · Что такое торрент? · Рейтинг и ограничения

Сайт не распространяет и не хранит электронные версии произведений, а лишь предоставляет доступ к создаваемому пользователями каталогу ссылок на торрент-файлы, которые содержат только списки хеш-сумм

[Профиль] [ЛС]
Показать сообщения:    
Ответить на тему

Текущее время: Сегодня 23:49

Часовой пояс: GMT + 4



Вы не можете начинать темы
Вы не можете отвечать на сообщения
Вы не можете редактировать свои сообщения
Вы не можете удалять свои сообщения
Вы не можете голосовать в опросах
Вы не можете прикреплять файлы к сообщениям
Вы не можете скачивать файлы