Кровью и потом: Анаболики / Pain & Gain (Майкл Бэй / Michael Bay) [2013, США, Криминал, комедия, триллер, боевик, BDRip 720p] Dub + Sub Rus + Original Eng

Ответить на тему
 
Автор Сообщение

user ®

Стаж: 7 лет 7 месяцев

Сообщений: 20008

Пост Пост: #1 от 08-Сен-2013 03:05

[Цитировать]

-Кровью и потом: Анаболики / Pain & Gain-Страна: США
Студия: Paramount Pictures
Жанр: Криминал, комедия, триллер, боевик
Год выпуска: 2013
Продолжительность: 02:09:36-Перевод: Профессиональный (дублированный)
Перевод 2: Одноголосый закадровый zamez ([url=http://***/forum/viewtopic.php?t=4428265]отдельной раздачей[/url])
Cубтитры: русские , английские
Оригинальная аудиодорожка: английский-Режиссер: Майкл Бэй / Michael Bay
В ролях: Марк Уолберг, Дуэйн Джонсон, Энтони Маки, Эд Харрис, Тони Шэлуб, Кен Жонг, Иоланта Кабау ван Касберген, Виорика Пинеда, Роб Кордри, Ребел Уилсон-Описание: Однажды тренеру по фитнесу надоело ходить в трениках. Он решил круто изменить свою судьбу и разбогатеть. Нашел двух других незадачливых качков и предложил им план похищения своего клиента-миллионера. Но если в организме мышц больше, чем мозгов, то даже самый лучший план, подсмотренный в экшен-боевике, может не сработать…-Сэмпл: http://yadi.sk/d/vEGoV1CS8sSfu-Тип релиза: BDRip 720p
Контейнер: MKV
Видео: MPEG-4 AVC Video 7256 kbps 1280x534p / 23.976 fps / High Profile 4.1
Аудио: DTS Audio Russian 5.1 / 48 kHz / 1509 kbps / 16-bit | Дубляж
Аудио 2: Dolby Digital Audio Russian 5.1 / 48 kHz / 384 kbps | Замез - [url=http://***/forum/viewtopic.php?t=4428265]отдельной раздачей[/url]
Аудио 3: DTS Audio English 5.1 / 48 kHz / 1509 kbps / 24-bit
Формат субтитров: softsub (SRT)

Видеоряд от DON

Pain & Gain 2013 720p BluRay DD5.1 x264-DON
Technical information
RUNTIME.......: 02:09:36SIZE..........: ~7.15 GBVIDEO CODEC...: x264 r2345kMod, CRF 17.7, L4.1, DXVAFRAMERATE.....: 23.976 fpsBITRATE.......: ~7256 KbpsRESOLUTION....: 1280x534 (2.40:1)AUDIO#1.......: English DD 5.1 @ 640 KbpsSUBTITLES.....: English, English SDHCHAPTERS......: IncludedSOURCE........: Pain & Gain 2013 1080p Blu-ray AVC TrueHD 7.1-CHDBits (thanks bfree!)
ENCODER.......: ProRockIlyaRELEASE DATE..: Aug 17 2013Source vs DON vs [url=http://***/forum/viewtopic.php?t=4510046]AMIABLE (resized)[/url]




MI

General
Complete name                    : X:\  -= Фильмы =-\Кровью и потом. Анаболики (2013. Pain & Gain) 720p.mkv
Format                           : Matroska
File size                        : 9.30 GiB
Duration                         : 2h 9mn
Overall bit rate                 : 10.3 Mbps
Movie name                       : Release for RuTracker
Encoded date                     : UTC 2013-09-07 21:47:47
Writing application              : mkvmerge v4.9.1 ('Ich will') сборка от Jul 11 2011 23:53:15
Writing library                  : libebml v1.2.1 + libmatroska v1.1.1
Video
ID                               : 1
Format                           : AVC
Format/Info                      : Advanced Video Codec
Format profile                   : High@L4.1
Format settings, CABAC           : Yes
Format settings, ReFrames        : 12 frames
Format settings, GOP             : M=12, N=32
Muxing mode                      : Container profile=Unknown@4.1
Codec ID                         : V_MPEG4/ISO/AVC
Duration                         : 2h 9mn
Bit rate                         : 7 053 Kbps
Width                            : 1 280 pixels
Height                           : 534 pixels
Display aspect ratio             : 2.35:1
Frame rate                       : 23.976 fps
Color space                      : YUV
Chroma subsampling               : 4:2:0
Bit depth                        : 8 bits
Scan type                        : Progressive
Bits/(Pixel*Frame)               : 0.430
Stream size                      : 6.39 GiB (69%)
Title                            : Pain & Gain 2013 720p BluRay DD5.1 x264-DON
Writing library                  : x264 core 135 r2345kMod f0c1c53
Encoding settings                : cabac=1 / ref=12 / deblock=1:-3:-3 / analyse=0x3:0x113 / me=umh / subme=11 / psy=1 / fade_compensate=0.00 / psy_rd=0.93:0.00 / mixed_ref=1 / me_range=32 / chroma_me=1 / trellis=2 / 8x8dct=1 / cqm=0 / deadzone=6,6 / fast_pskip=0 / chroma_qp_offset=-4 / threads=6 / lookahead_threads=1 / sliced_threads=0 / nr=0 / decimate=0 / interlaced=0 / bluray_compat=0 / constrained_intra=0 / bframes=12 / b_pyramid=2 / b_adapt=2 / b_bias=0 / direct=1 / weightb=1 / open_gop=0 / weightp=2 / keyint=230 / keyint_min=23 / scenecut=40 / intra_refresh=0 / rc_lookahead=60 / rc=crf / mbtree=0 / crf=17.7000 / qcomp=0.65 / qpmin=0 / qpmax=69 / qpstep=4 / vbv_maxrate=50000 / vbv_bufsize=62500 / crf_max=0.0 / nal_hrd=none / ip_ratio=1.10 / pb_ratio=1.10 / aq=3:0.85
Language                         : English
Audio #1
ID                               : 2
Format                           : DTS
Format/Info                      : Digital Theater Systems
Codec ID                         : A_DTS
Duration                         : 2h 9mn
Bit rate mode                    : Constant
Bit rate                         : 1 510 Kbps
Channel(s)                       : 6 channels
Channel positions                : Front: L C R, Side: L R, LFE
Sampling rate                    : 48.0 KHz
Bit depth                        : 16 bits
Stream size                      : 1.37 GiB (15%)
Title                            : Dub
Language                         : Russian
Audio #2
ID                               : 3
Format                           : DTS
Format/Info                      : Digital Theater Systems
Codec ID                         : A_DTS
Duration                         : 2h 9mn
Bit rate mode                    : Constant
Bit rate                         : 1 510 Kbps
Channel(s)                       : 6 channels
Channel positions                : Front: L C R, Side: L R, LFE
Sampling rate                    : 48.0 KHz
Bit depth                        : 24 bits
Stream size                      : 1.37 GiB (15%)
Language                         : English
Text #1
ID                               : 4
Format                           : UTF-8
Codec ID                         : S_TEXT/UTF8
Codec ID/Info                    : UTF-8 Plain Text
Language                         : Russian
Text #2
ID                               : 5
Format                           : UTF-8
Codec ID                         : S_TEXT/UTF8
Codec ID/Info                    : UTF-8 Plain Text
Language                         : English
Text #3
ID                               : 6
Format                           : UTF-8
Codec ID                         : S_TEXT/UTF8
Codec ID/Info                    : UTF-8 Plain Text
Title                            : SDH
Language                         : English
Menu
00:00:00.000                     : en:00:00:00.000
00:02:34.654                     : en:00:02:34.654
00:09:33.990                     : en:00:09:33.990
00:16:08.676                     : en:00:16:08.676
00:22:05.658                     : en:00:22:05.658
00:25:50.841                     : en:00:25:50.841
00:32:45.505                     : en:00:32:45.505
00:38:52.789                     : en:00:38:52.789
00:46:19.652                     : en:00:46:19.652
00:51:40.973                     : en:00:51:40.973
00:58:11.738                     : en:00:58:11.738
01:04:03.548                     : en:01:04:03.548
01:10:32.311                     : en:01:10:32.311
01:16:17.281                     : en:01:16:17.281
01:21:20.542                     : en:01:21:20.542
01:29:00.085                     : en:01:29:00.085
01:37:06.029                     : en:01:37:06.029
01:42:17.715                     : en:01:42:17.715
01:49:10.461                     : en:01:49:10.461
01:56:34.487                     : en:01:56:34.487
02:01:42.295                     : en:02:01:42.295

Скриншоты


  • thx sergey_n
  • За русские сабы спасибо voronine
Скачать

Скачать торрент!

Как скачивать? · Что такое торрент? · Рейтинг и ограничения

Сайт не распространяет и не хранит электронные версии произведений, а лишь предоставляет доступ к создаваемому пользователями каталогу ссылок на торрент-файлы, которые содержат только списки хеш-сумм

[Профиль] [ЛС]
Показать сообщения:    
Ответить на тему

Текущее время: Сегодня 20:39

Часовой пояс: GMT + 4



Вы не можете начинать темы
Вы не можете отвечать на сообщения
Вы не можете редактировать свои сообщения
Вы не можете удалять свои сообщения
Вы не можете голосовать в опросах
Вы не можете прикреплять файлы к сообщениям
Вы не можете скачивать файлы