Книга джунглей 2 / The Jungle Book 2 (Стив Тренберт / Steve Trenbirth) [2003, мультфильм, мюзикл, приключения, семейный, BDRip] Dub + Original + subs (Rus, RusF, Eng)

Ответить на тему
 
Автор Сообщение

user ®

Стаж: 12 лет

Сообщений: 15145

Пост Пост: #1 от 07-Сен-2013 23:55

[Цитировать]

Книга джунглей 2 / The Jungle Book 2- Год выпуска: 2003
Выпущено: США
Жанр: мультфильм, мюзикл, приключения, семейный
Продолжительность: 01:12:16
Перевод: Профессиональный (полное дублирование)
+ Оригинальная звуковая дорожка
Субтитры: Русские (полные, форсированные), английские (внешние srt*)-Режиссер: Стив Тренберт / Steve Trenbirth
Роли озвучивали: Джон Гудман, Хэйли Джоэл Осмент, Мэй Уитман, Коннор Фанк, Боб Джоулз, Тони Джей, Джон Рис-Дэвис, Джим Каммингс, Фил Коллинз, Джефф Беннетт, Алексей Гурьев, Аглая Гершова, Станислав Ревазов, Ольга Вечерик, Илья Сергеев
О фильме: Продолжение невероятной истории об удивительном мальчике, выросшем в джунглях. После того, как Маугли вернулся жить в настоящую человеческую семью, он обрел настоящую дружбу и любовь, но его прошлая жизнь в джунглях продолжает напоминать о себе. Малыш соскучился по своим друзьям, оставшимся в лесу. Друзья Маугли во главе с веселым мишкой Балу тоже очень скучают по своему «лягушонку».
Но Балу далеко не единственный, кто жаждет увидать «любимчика джунглей»: тигр Шер Хан жаждет поквитаться с дерзким выскочкой. Кто встретит Маугли в джунглях первым - старые друзья или тигр-людоед? Но нашему маленькому герою не привыкать к опасности, ведь из самых сложных ситуаций он находит самый смешной и оригинальный выход!
Релиз:
Автор: kingsize87
Качество: BDRip (источник: DVDSEED / Blu-ray EUR / 1080р)
Формат: AVI
Видео: 704x416 (1.69:1), 23,976 fps, XviD build 65 ~1963 kbps avg, 0.28 bit/pixel
Аудио #1: 48 kHz, AC3 Dolby Digital, 3/2 (L,C,R,l,r) + LFE ch, ~448.00 kbps avg rus
Аудио #2: 48 kHz, AC3 Dolby Digital, 3/2 (L,C,R,l,r) + LFE ch, ~448.00 kbps avg eng
Размер: 1485.71 Mb (1/3 DVD-R)- -

Mi


Формат : AVI
Формат/Информация : Audio Video Interleave
Размер файла : 1,45 Гбайт
Продолжительность : 1 ч. 12 м.
Общий поток : 2874 Кбит/сек
Название фильма : Книга джунглей 2 / The Jungle Book 2 (2003) BDRip
Режиссёр : kingsize87
Программа кодирования : VirtualDubMod 1.5.10.2 (build 2540/release)
Правообладатель : HQCLUB
Примечание : 07.09.2013
Видео
Идентификатор : 0
Формат : MPEG-4 Visual
Профиль формата : Advanced Simple@L5
Параметр BVOP формата : 1
Параметр QPel формата : Нет
Параметр GMC формата : Без точки перехода
Параметр матрицы формата : Выборочная
Идентификатор кодека : XVID
Идентификатор кодека/Подсказка : XviD
Продолжительность : 1 ч. 12 м.
Битрейт : 1964 Кбит/сек
Ширина : 704 пикселя
Высота : 416 пикселей
Соотношение сторон : 1,692
Частота кадров : 23,976 кадра/сек
Цветовое пространство : YUV
Субдискретизация насыщенности : 4:2:0
Битовая глубина : 8 бит
Тип развёртки : Прогрессивная
Метод сжатия : С потерями
Бит/(Пиксели*Кадры) : 0.280
Размер потока : 1015 Мбайт (68%)
Библиотека кодирования : XviD 65
Аудио #1
Идентификатор : 1
Формат : AC-3
Формат/Информация : Audio Coding 3
Расширение режима : CM (complete main)
Параметр Endianness формата : Big
Идентификатор кодека : 2000
Продолжительность : 1 ч. 12 м.
Вид битрейта : Постоянный
Битрейт : 448 Кбит/сек
Каналы : 6 каналов
Расположение каналов : Front: L C R, Side: L R, LFE
Частота : 48,0 КГц
Битовая глубина : 16 бит
Метод сжатия : С потерями
Размер потока : 232 Мбайт (16%)
Выравнивание : Разделение по промежуткам
Продолжительность промежутка : 42 мс. (1,00 видеокадр)
Время предзагрузки промежутка : 500 мс.
Аудио #2
Идентификатор : 2
Формат : AC-3
Формат/Информация : Audio Coding 3
Расширение режима : CM (complete main)
Параметр Endianness формата : Big
Идентификатор кодека : 2000
Продолжительность : 1 ч. 12 м.
Вид битрейта : Постоянный
Битрейт : 448 Кбит/сек
Каналы : 6 каналов
Расположение каналов : Front: L C R, Side: L R, LFE
Частота : 48,0 КГц
Битовая глубина : 16 бит
Метод сжатия : С потерями
Размер потока : 232 Мбайт (16%)
Выравнивание : Разделение по промежуткам
Продолжительность промежутка : 42 мс. (1,00 видеокадр)
Время предзагрузки промежутка : 500 мс.
-
Скачать

Скачать торрент! Книга джунглей 2 / The Jungle Book 2 (Стив Тренберт / Steve Trenbirth) [2003, мультфильм, мюзикл, приключения, семейный, BDRip] Dub + Original + subs (Rus, RusF, Eng)

Как скачивать? · Что такое торрент? · Рейтинг и ограничения

Сайт не распространяет и не хранит электронные версии произведений, а лишь предоставляет доступ к создаваемому пользователями каталогу ссылок на торрент-файлы, которые содержат только списки хеш-сумм

[Профиль] [ЛС]
Показать сообщения:    
Ответить на тему

Текущее время: Сегодня 11:58

Часовой пояс: GMT + 4



Вы не можете начинать темы
Вы не можете отвечать на сообщения
Вы не можете редактировать свои сообщения
Вы не можете удалять свои сообщения
Вы не можете голосовать в опросах
Вы не можете прикреплять файлы к сообщениям
Вы не можете скачивать файлы