Кот в сапогах (Гарри Бардин) [1995 г., мультфильм, DVB]

Ответить на тему
 
Автор Сообщение

user ®

Стаж: 7 лет 7 месяцев

Сообщений: 20008

Пост Пост: #1 от 07-Сен-2013 23:55

[Цитировать]

Кот в сапогах
Жанр: мультфильм
Год выпуска: 1995
Продолжительность: 00:27:06
Режиссёр: Гарри Бардин
Описание: Уникальный пластилиновый мультфильм, созданный на заре демократии в России. Картина ярко отражает особенности жизни и ментальность русского человека. Искромётный юмор главных героев создаст зрителю отличное настроение и оставит незабываемые впечатления. Кот в мешке прибывает в Россию как часть гуманитарной помощи из Америки (сразу после Перестройки) и достаётся молодому пьянице и горе-патриоту Карабасову, которому предлагает эмигрировать в Америку. Полёт на волшебном коте, который использует хвост в качестве пропеллера, обрывается над Европой. Там зазнавшийся юноша Карабасов забывает о неоценимых услугах, которые оказал ему Кот в сапогах, и тот возвращает неблагодарного обратно в Россию…
Доп. информация:
- На протяжении всего мультфильма звучит музыка известных композиторов: Николай Римский-Корсаков «Полёт шмеля», Камиль Сен-Санс «Лебедь» из сюиты «Карнавал животных», Луиджи Боккерини «Менуэт»; Вольфганг Амадей Моцарт «Маленькая ночная серенада», отрывок из Симфонии № 40; Иоганн Себастьян Бах «Скерцо», «Токката и фуга ре-минор», Рихард Вагнер — прелюдия к III акту оперы «Лоэнгрин».
- В мультфильме разные герои разговаривают на русском, английском, французском и немецком языках.


Качество видео: DVB
Формат видео: MPEG-TS
Видео: MPEG4 Video (H264), 720x576@785x576 (4:3), анаморф, 25 fps, 4300 kbps
Аудио: MPEG Audio, 2 сh, 48 kHz, 192 kbps
Трансляция спутникового канала:

MediaInfo

D:\Кот в сапогах (1995)_DVB by SLuMeP.ts
General #1
ID : 1 (0x1)
Complete name : D:\Кот в сапогах (1995)_DVB by SLuMeP.ts
Format : MPEG-TS
File size : 920 MiB
Duration : 27mn 6s
Overall bit rate : 4 746 Kbps
Video #2271
ID : 2271 (0x8DF)
Menu ID : 1 (0x1)
Format : AVC
Format/Info : Advanced Video Codec
Format profile : Main@L3.0
Format settings, CABAC : Yes
Format settings, ReFrames : 3 frames
Codec ID : 27
Duration : 27mn 6s
Bit rate : 4 317 Kbps
Width : 720 pixels
Height : 576 pixels
Display aspect ratio : 4:3
Frame rate : 25.000 fps
Standard : Component
Color space : YUV
Chroma subsampling : 4:2:0
Bit depth : 8 bits
Scan type : Interlaced
Scan order : Top Field First
Bits/(Pixel*Frame) : 0.416
Stream size : 837 MiB (91%)
Color primaries : BT.470-6 System B, BT.470-6 System G, BT.601-6 625, BT.1358 625, BT.1700 625 PAL, BT.1700 625 SECAM
Transfer characteristics : BT.470-6 System B, BT.470-6 System G
Matrix coefficients : BT.470-6 System B, BT.470-6 System G, BT.601-6 625, BT.1358 625, BT.1700 625 PAL, BT.1700 625 SECAM, IEC 61966-2-4 601
Audio #2272
ID : 2272 (0x8E0)
Menu ID : 1 (0x1)
Format : MPEG Audio
Format version : Version 1
Format profile : Layer 2
Codec ID : 3
Duration : 27mn 6s
Bit rate mode : Constant
Bit rate : 192 Kbps
Channel(s) : 2 channels
Sampling rate : 48.0 KHz
Compression mode : Lossy
Stream size : 37.2 MiB (4%)
Language : English

Скриншоты

Скачать

Скачать торрент!

Как скачивать? · Что такое торрент? · Рейтинг и ограничения

Сайт не распространяет и не хранит электронные версии произведений, а лишь предоставляет доступ к создаваемому пользователями каталогу ссылок на торрент-файлы, которые содержат только списки хеш-сумм

[Профиль] [ЛС]
Показать сообщения:    
Ответить на тему

Текущее время: Сегодня 18:31

Часовой пояс: GMT + 4



Вы не можете начинать темы
Вы не можете отвечать на сообщения
Вы не можете редактировать свои сообщения
Вы не можете удалять свои сообщения
Вы не можете голосовать в опросах
Вы не можете прикреплять файлы к сообщениям
Вы не можете скачивать файлы