Кровью и потом: Анаболики / Pain & Gain (Майкл Бэй / Michael Bay) [2013, США, криминал, комедия, триллер, боевик, BDRip-AVC] Dub + Original Eng, Sub (Rus, Eng)

Ответить на тему
 
Автор Сообщение

user ®

Стаж: 7 лет 7 месяцев

Сообщений: 20008

Пост Пост: #1 от 07-Сен-2013 23:55

[Цитировать]

Кровью и потом: Анаболики / Pain & Gain
«Мечтай по-крупному»
Страна: США
Жанр: криминал, комедия, триллер, боевик
Год выпуска: 2013
Продолжительность: 02:09:36
Перевод: Профессиональный (дублированный)
Cубтитры: русские, английские
Оригинальная аудиодорожка: английский
Режиссер: Майкл Бэй / Michael Bay
В ролях: Марк Уолберг, Дуэйн Джонсон, Энтони Маки, Эд Харрис, Тони Шэлуб, Кен Жонг, Иоланта Кабау ван Касберген, Виорика Пинеда, Роб Кордри, Ребел Уилсон.
Описание: Однажды тренеру по фитнесу надоело ходить в трениках. Он решил круто изменить свою судьбу и разбогатеть. Нашел двух других незадачливых качков и предложил им план похищения своего клиента-миллионера. Но если в организме мышц больше, чем мозгов, то даже самый лучший план, подсмотренный в экшен-боевике, может не сработать…-Качество видео: BDRip-AVC Pain.and.Gain.2013.1080p.BluRay.AVC.TrueHD.7.1-HDWinG
Формат видео: MKV
Видео: 1104x460 (2.40:1), 3 923 kbps, 23,976 fps, 0.322 bpp
Аудио 1: 48 kHz, AC3 Dolby Digital, 3/2 (L,C,R,l,r) + LFE ch, ~448.00 kbps avg / Dub
Аудио 2: 48 kHz, AC3 Dolby Digital, 3/2 (L,C,R,l,r) + LFE ch, ~448.00 kbps avg / Eng
Cубтитры: Русские, Английские (полные + SDH)
Навигация по главам: есть
......................................BDrip-AVC........................................................................Source.......................................




MediaInfo

x264

x264 [info]: frame I:1882 Avg QP:16.58 size: 99115 PSNR Mean Y:46.96 U:48.82 V:48.97 Avg:47.50 Global:46.95
x264 [info]: frame P:49422 Avg QP:19.29 size: 36251 PSNR Mean Y:45.18 U:47.32 V:47.42 Avg:45.76 Global:44.99
x264 [info]: frame B:135152 Avg QP:21.11 size: 13568 PSNR Mean Y:44.27 U:46.19 V:46.42 Avg:44.80 Global:44.02
x264 [info]: consecutive B-frames: 4.5% 7.0% 12.4% 29.2% 17.6% 22.2% 3.3% 1.5% 0.7% 0.5% 0.3% 0.3% 0.3%
x264 [info]: mb I I16..4: 9.8% 60.5% 29.7%
x264 [info]: mb P I16..4: 1.7% 14.2% 2.6% P16..4: 28.2% 32.7% 13.8% 0.0% 0.0% skip: 6.9%
x264 [info]: mb B I16..4: 0.2% 1.8% 0.3% B16..8: 32.1% 22.2% 4.3% direct: 9.3% skip:29.8% L0:38.0% L1:38.6% BI:23.4%
x264 [info]: 8x8 transform intra:75.2% inter:55.7%
x264 [info]: direct mvs spatial:95.7% temporal:4.3%
x264 [info]: coded y,uvDC,uvAC intra: 87.3% 92.5% 84.7% inter: 31.2% 41.6% 29.0%
x264 [info]: i16 v,h,dc,p: 28% 12% 10% 50%
x264 [info]: i8 v,h,dc,ddl,ddr,vr,hd,vl,hu: 11% 11% 7% 9% 12% 12% 12% 12% 14%
x264 [info]: i4 v,h,dc,ddl,ddr,vr,hd,vl,hu: 14% 12% 5% 8% 13% 12% 13% 10% 12%
x264 [info]: i8c dc,h,v,p: 46% 19% 15% 20%
x264 [info]: Weighted P-Frames: Y:3.2% UV:2.1%
x264 [info]: ref P L0: 48.9% 13.9% 16.6% 5.7% 4.6% 3.1% 2.8% 1.5% 1.4% 1.2% 0.3% 0.0%
x264 [info]: ref B L0: 75.9% 11.7% 5.1% 2.6% 1.7% 1.4% 1.0% 0.5% 0.2%
x264 [info]: ref B L1: 93.1% 6.9%
x264 [info]: SSIM Mean Y:0.9845673 (18.116db)
x264 [info]: PSNR Mean Y:44.541 U:46.520 V:46.710 Avg:45.078 Global:44.280 kb/s:3921.25
x264 [total]: encoded 186456 frames, 6.05 fps, 3921.25 kb/s
General
Unique ID : 234810876924522408697790749094726861030 (0xB0A6EE0ED29C0981A47BF8D0E9EC00E6)
Complete name : D:\Pain & Gain.2013.BDrip-AVC.Froloff777.mkv
Format : Matroska
Format version : Version 4 / Version 2
File size : 4.36 GiB
Duration : 2h 9mn
Overall bit rate : 4 820 Kbps
Encoded date : UTC 2013-09-07 17:54:22
Writing application : mkvmerge v6.1.0 ('Old Devil') built on Mar 4 2013 09:10:42
Writing library : libebml v1.3.0 + libmatroska v1.4.0
Video
ID : 1
Format : AVC
Format/Info : Advanced Video Codec
Format profile : High@L4.1
Format settings, CABAC : Yes
Format settings, ReFrames : 10 frames
Codec ID : V_MPEG4/ISO/AVC
Duration : 2h 9mn
Bit rate : 3 923 Kbps
Width : 1 104 pixels
Height : 460 pixels
Display aspect ratio : 2.40:1
Frame rate mode : Constant
Frame rate : 23.976 fps
Color space : YUV
Chroma subsampling : 4:2:0
Bit depth : 8 bits
Scan type : Progressive
Bits/(Pixel*Frame) : 0.322
Stream size : 3.47 GiB (79%)
Title : Pain & Gain
Writing library : x264 core 130 r2273 b3065e6
Encoding settings : cabac=1 / ref=10 / deblock=1:-3:-2 / analyse=0x3:0x113 / me=umh / subme=11 / psy=1 / psy_rd=1.00:0.15 / mixed_ref=1 / me_range=32 / chroma_me=1 / trellis=2 / 8x8dct=1 / cqm=0 / deadzone=21,11 / fast_pskip=0 / chroma_qp_offset=-3 / threads=6 / lookahead_threads=1 / sliced_threads=0 / nr=0 / decimate=0 / interlaced=0 / bluray_compat=0 / constrained_intra=0 / bframes=12 / b_pyramid=2 / b_adapt=2 / b_bias=0 / direct=3 / weightb=1 / open_gop=0 / weightp=2 / keyint=250 / keyint_min=23 / scenecut=40 / intra_refresh=0 / rc_lookahead=60 / rc=2pass / mbtree=0 / bitrate=3923 / ratetol=1.0 / qcomp=0.65 / qpmin=0 / qpmax=69 / qpstep=4 / cplxblur=20.0 / qblur=0.5 / vbv_maxrate=50000 / vbv_bufsize=62500 / nal_hrd=none / ip_ratio=1.35 / pb_ratio=1.30 / aq=2:0.80
Language : English
Default : Yes
Forced : No
Audio #1
ID : 2
Format : AC-3
Format/Info : Audio Coding 3
Mode extension : CM (complete main)
Format settings, Endianness : Big
Codec ID : A_AC3
Duration : 2h 9mn
Bit rate mode : Constant
Bit rate : 448 Kbps
Channel count : 6 channels
Channel positions : Front: L C R, Side: L R, LFE
Sampling rate : 48.0 KHz
Bit depth : 16 bits
Compression mode : Lossy
Stream size : 415 MiB (9%)
Title : Дублированный
Language : Russian
Default : Yes
Forced : No
Audio #2
ID : 3
Format : AC-3
Format/Info : Audio Coding 3
Mode extension : CM (complete main)
Format settings, Endianness : Big
Codec ID : A_AC3
Duration : 2h 9mn
Bit rate mode : Constant
Bit rate : 448 Kbps
Channel count : 6 channels
Channel positions : Front: L C R, Side: L R, LFE
Sampling rate : 48.0 KHz
Bit depth : 16 bits
Compression mode : Lossy
Stream size : 415 MiB (9%)
Language : English
Default : No
Forced : No
Text #1
ID : 4
Format : UTF-8
Codec ID : S_TEXT/UTF8
Codec ID/Info : UTF-8 Plain Text
Language : Russian
Default : No
Forced : No
Text #2
ID : 5
Format : UTF-8
Codec ID : S_TEXT/UTF8
Codec ID/Info : UTF-8 Plain Text
Title : Full
Language : English
Default : No
Forced : No
Text #3
ID : 6
Format : UTF-8
Codec ID : S_TEXT/UTF8
Codec ID/Info : UTF-8 Plain Text
Title : SDH
Language : English
Default : No
Forced : No
Menu
00:00:00.000 : en:
00:02:34.654 : en:
00:09:33.990 : en:
00:16:08.676 : en:
00:22:05.657 : en:
00:25:50.840 : en:
00:32:45.505 : en:
00:38:52.788 : en:
00:46:19.651 : en:
00:51:40.972 : en:
00:58:11.738 : en:
01:04:03.548 : en:
01:10:32.311 : en:
01:16:17.281 : en:
01:21:20.542 : en:
01:29:00.084 : en:
01:37:06.028 : en:
01:42:17.714 : en:
01:49:10.460 : en:
01:56:34.487 : en:
02:01:42.295 : en:

Скриншоты

Скачать

Скачать торрент!

Как скачивать? · Что такое торрент? · Рейтинг и ограничения

Сайт не распространяет и не хранит электронные версии произведений, а лишь предоставляет доступ к создаваемому пользователями каталогу ссылок на торрент-файлы, которые содержат только списки хеш-сумм

[Профиль] [ЛС]
Показать сообщения:    
Ответить на тему

Текущее время: Сегодня 00:11

Часовой пояс: GMT + 4



Вы не можете начинать темы
Вы не можете отвечать на сообщения
Вы не можете редактировать свои сообщения
Вы не можете удалять свои сообщения
Вы не можете голосовать в опросах
Вы не можете прикреплять файлы к сообщениям
Вы не можете скачивать файлы