Шевели ластами 2 / Sammy's avonturen 2 (Винсент Кестелут / Vincent Kesteloot, Бен Стассен / Ben Stassen) [2012, мультфильм, приключения, семейный, BDRip] Dub

Ответить на тему
 
Автор Сообщение

user ®

Стаж: 13 лет

Сообщений: 15041

Пост Пост: #1 от 07-Сен-2013 20:45

[Цитировать]

Шевели ластами 2 / Sammy's avonturen 2«Расслабь панцирь»- Страна: Бельгия
Жанр: мультфильм, приключения, семейный
Год выпуска: 2012
Продолжительность: 01:32:45
Перевод: Профессиональный (полное дублирование)
Субтитры: Нет-Режиссер: Винсент Кестелут / Vincent Kesteloot, Бен Стассен / Ben Stassen-Роли озвучивали: Билли Ангер (Sammy, озвучка), Пэт Кэрролл (озвучка), Карлос МакКаллерс II (Ray, озвучка), Синда Адамс (Veterinarian), Дино Андраде (Manuel Hogfish), Крис Эндрю Кулла (Russian Snowcrab, озвучка), Изабель Фурман (Shelly, озвучка), Картер Хатингс (Ricky), Уэсли Джонни (Sammy), Силье Рейномо (Several voices (Norwegian)), Дуглас Райан Рот (Seagul #3), Майкл Сунь Ли (Japanese Fisherman)-Роли дублировали: Кирилл Туранский, Наталья Терешкова, Пётр Иващенко, Анна Денисова-Описание: Верные друзья навсегда, черепахи Сэмми и Рей, наслаждаются размеренной жизнью вблизи океана, а также присматривают за только что вылупившимися Рикки и Эллой. Внезапно, браконьер хватает больших черепах, они нужны ему для захватывающего морского шоу в Дубае. Центральная фигура шоу, морской конёк Большой Ди, посвящает новичков в свои планы на грандиозный побег.
Но, когда маленькие Рикки и Элла прибывают, чтобы спасти «дедушек», планы черепах и их новых друзей: пучеглазой рыбки Джимбо, осьминога Анабель, омара и большой семьи пингвинов, меняются. После ряда волнующих приключений и побегов, наши герои направляются на юг, чтобы встретиться с Шелли, первой и единственной любовью Сэмми.
-Доп. информация: BDRemux 1920x1080 (16/9) сделан с Blu-Ray диска из состава Combo Pack из коллекции DFCbit.
Отдельное спасибо xfiles за подготовку русских и английских субтитров.
-Рейтинг:
-Сборы в России: $2 652 777
Сборы в мире: $34 715 056
Мировая премьера: 2 августа 2012
Релиз на DVD: 26 марта 2013, «West Video»
Релиз на Blu-ray: 26 марта 2013,«West Video»-Релиз: -Семпл-Качество: BDRip [Sammys.Escape.From.Paradise.2012.BDRemux.1080p.dfcbit.mkv]
Формат: AVI
Видео: 656x368 (1.78:1), 23.976 fps, XviD build 65 ~987 kbps avg, 0.17 bit/pixel
Аудио: 48 kHz, MPEG Layer 3, 2 ch, ~128.00 kbps avg
Субтитры: Отсутствуют

MI

Format : AVIFormat/Info : Audio Video InterleaveFile size : 746 MiBDuration : 1h 32mnOverall bit rate : 1 125 KbpsWriting application : VirtualDubMod 1.5.10.3 | www.virtualdub-fr.org || (build 2550/release)Writing library : VirtualDubMod build 2550/release
VideoID : 0Format : MPEG-4 VisualFormat profile : Advanced Simple@L5Format settings, BVOP : 2Format settings, QPel : NoFormat settings, GMC : No warppointsFormat settings, Matrix : CustomCodec ID : XVIDCodec ID/Hint : XviDDuration : 1h 32mnBit rate : 988 KbpsWidth : 656 pixelsHeight : 368 pixelsDisplay aspect ratio : 16:9Frame rate : 23.976 fpsColor space : YUVChroma subsampling : 4:2:0Bit depth : 8 bitsScan type : ProgressiveCompression mode : LossyBits/(Pixel*Frame) : 0.171Stream size : 655 MiB (88%)Writing library : XviD 65
AudioID : 1Format : MPEG AudioFormat version : Version 1Format profile : Layer 3Codec ID : 55Codec ID/Hint : MP3Duration : 1h 32mnBit rate mode : ConstantBit rate : 128 KbpsChannel(s) : 2 channelsSampling rate : 48.0 KHzCompression mode : LossyStream size : 84.9 MiB (11%)Alignment : Aligned on interleavesInterleave, duration : 42 ms (1.00 video frame)Interleave, preload duration : 504 msWriting library : LAME3.99rEncoding settings : -m s -V 4 -q 2 -lowpass 17 -b 128
-
Скачать

Скачать торрент! Шевели ластами 2 / Sammy's avonturen 2 (Винсент Кестелут / Vincent Kesteloot, Бен Стассен / Ben Stassen) [2012, мультфильм, приключения, семейный, BDRip] Dub

Как скачивать? · Что такое торрент? · Рейтинг и ограничения

Сайт не распространяет и не хранит электронные версии произведений, а лишь предоставляет доступ к создаваемому пользователями каталогу ссылок на торрент-файлы, которые содержат только списки хеш-сумм

[Профиль] [ЛС]
Показать сообщения:    
Ответить на тему

Текущее время: Сегодня 18:26

Часовой пояс: GMT + 4



Вы не можете начинать темы
Вы не можете отвечать на сообщения
Вы не можете редактировать свои сообщения
Вы не можете удалять свои сообщения
Вы не можете голосовать в опросах
Вы не можете прикреплять файлы к сообщениям
Вы не можете скачивать файлы