Великий Гэтсби / The Great Gatsby (Баз Лурман / Baz Luhrmann) [2013, Австралия, США, Драма, мелодрама, BDRip 720p] Dub + AVO (Ю.Сербин) + Ukr + Original (Eng) + Sub (Rus, Eng, Ukr)

Ответить на тему
 
Автор Сообщение

user ®

Стаж: 7 лет 7 месяцев

Сообщений: 20008

Пост Пост: #1 от 07-Сен-2013 20:45

[Цитировать]

Великий Гэтсби / The Great Gatsby«Нельзя вернуть прошлое? Ну, конечно, можно!»- Страна: Австралия, США
Студия: Warner Bros. Pictures
Жанр: Драма, мелодрама
Год выпуска: 2013
Продолжительность: 02:22:05-Перевод 1: Профессиональный (дублированный) Blu-ray CEE
Перевод 2: Авторский (одноголосый закадровый) (Ю.Сербин)
Оригинальная аудиодорожка: английский
Cубтитры: русские, украинские, английские-Режиссер: Баз Лурман / Baz Luhrmann
В ролях: Леонардо ДиКаприо, Тоби Магуайр, Кэри Маллиган, Джоэл Эдгертон, Айла Фишер, Джейсон Кларк, Амитабх Баччан, Стив Бисли, Ричард Картер, Эделейд Клеменс-Описание: Весной 1922 года, в эпоху разлагающейся морали, блистательного джаза и «королей контрабандного алкоголя», Ник Каррауэй приезжает из Среднего Запада в Нью-Йорк. Преследуя собственную американскую мечту, он селится по соседству с таинственным, известным своими вечеринками миллионером Джеем Гэтсби, а на противоположном берегу бухты проживают его кузина Дэйзи и её муж, повеса и аристократ, Том Бьюкенен. Так Ник оказывается вовлечённым в захватывающий мир богатых — их иллюзий, любви и обманов. Он становится свидетелем происходящего в этом мире и пишет историю невозможной любви, вечных мечтаний и человеческой трагедии, которые являются отражением современных времен и нравов.- -Тип релиза: BDRip 720p
Источник: The.Great.Gatsby.2013.COMPLETE.BLURAY-LAZERS
Контейнер: MKV
Видео: 1280x534 at 23.976 fps, x264@L4.1, 2pass, ~6400 kbps avg
Аудио 1: Russian: 48 kHz, AC3, 3/2 (L,C,R,l,r) + LFE ch, ~448.00 kbps avg |Дубляж, Blu-ray CEE|
Аудио 2: Ukrainian: 48 kHz, AC3, 3/2 (L,C,R,l,r) + LFE ch, ~448.00 kbps avg |Дубляж, Blu-ray CEE|
Аудио 3: Russian: 48 kHz, DTS, 3/2 (L,C,R,l,r) + LFE ch, ~1536.00 kbps avg |Одноголосый закадровый, Ю.Сербин|
Аудио 4: English: 48 kHz, DTS, 3/2 (L,C,R,l,r) + LFE ch, ~1536.00 kbps avgg
Субтитры: Russian (Forced, iTunes), Ukrainian (Forced, iTunes), Russian (iTunes), Ukrainian (iTunes), English, English (SDH), English (SDH-COLORED)
▪ Сохранены оригинальные чаптеры как на Blu-ray.
▪ Исходный WEB-DL куплен в рамках сервиса "Копилка".
▪ Fix OCR, italics, overlapping, etc... @ Dorothea.
▪ Перевод Юрия Сербина выполнен в рамках сервиса от HDCLUB "Озвучивание" совместно с E180.ru и dvd100.ru. Спонсоры HDCLUB: tambov68, oak, serdg71, RAUL, dsk71, v1111o, Luka69, Kain_Rasiel, u6868, Snaip, Didier. Работа над дорогой: Nadoelo. Всем СПАСИБО!
-

MediaInfo

Format : Matroska
Format version : Version 2
File size : 10.2 GiB
Duration : 2h 22mn
Overall bit rate : 10.3 Mbps
Movie name : The Great Gatsby (2013) - Release for HDCLUB
Encoded date : UTC 2013-09-06 17:49:55
Writing application : mkvmerge v3.4.0 ('Rapunzel') built on May 15 2010 09:38:20
Writing library : libebml v0.8.0 + libmatroska v0.9.0
Video
ID : 1
Format : AVC
Format/Info : Advanced Video Codec
Format profile : High@L4.1
Format settings, CABAC : Yes
Format settings, ReFrames : 12 frames
Codec ID : V_MPEG4/ISO/AVC
Duration : 2h 22mn
Bit rate : 6 400 Kbps
Width : 1 280 pixels
Height : 534 pixels
Display aspect ratio : 2.40:1
Frame rate mode : Constant
Frame rate : 23.976 fps
Color space : YUV
Chroma subsampling : 4:2:0
Bit depth : 8 bits
Scan type : Progressive
Bits/(Pixel*Frame) : 0.391
Stream size : 6.15 GiB (60%)
Title : The Great Gatsby (2013) - Release for HDCLUB
Writing library : x264 core 135 r2345 f0c1c53
Encoding settings : cabac=1 / ref=12 / deblock=1:-3:-3 / analyse=0x3:0x133 / me=tesa / subme=9 / psy=1 / psy_rd=1.05:0.10 / mixed_ref=1 / me_range=32 / chroma_me=1 / trellis=2 / 8x8dct=1 / cqm=0 / deadzone=21,11 / fast_pskip=0 / chroma_qp_offset=-3 / threads=12 / lookahead_threads=2 / sliced_threads=0 / nr=0 / decimate=0 / interlaced=0 / bluray_compat=0 / constrained_intra=0 / bframes=8 / b_pyramid=2 / b_adapt=2 / b_bias=0 / direct=3 / weightb=1 / open_gop=0 / weightp=2 / keyint=250 / keyint_min=23 / scenecut=40 / intra_refresh=0 / rc_lookahead=60 / rc=2pass / mbtree=0 / bitrate=6400 / ratetol=1.0 / qcomp=0.60 / qpmin=0 / qpmax=50 / qpstep=4 / cplxblur=20.0 / qblur=0.5 / vbv_maxrate=50000 / vbv_bufsize=50000 / nal_hrd=none / ip_ratio=1.20 / pb_ratio=1.30 / aq=1:0.80
Language : English
Default : Yes
Forced : No
Audio #1
ID : 2
Format : AC-3
Format/Info : Audio Coding 3
Mode extension : CM (complete main)
Format settings, Endianness : Big
Codec ID : A_AC3
Duration : 2h 22mn
Bit rate mode : Constant
Bit rate : 448 Kbps
Channel count : 6 channels
Channel positions : Front: L C R, Side: L R, LFE
Sampling rate : 48.0 KHz
Bit depth : 16 bits
Compression mode : Lossy
Stream size : 455 MiB (4%)
Title : AC3 5.1 @ 448 kbps - DUB, Blu-ray CEE
Language : Russian
Default : Yes
Forced : No
Audio #2
ID : 3
Format : AC-3
Format/Info : Audio Coding 3
Mode extension : CM (complete main)
Format settings, Endianness : Big
Codec ID : A_AC3
Duration : 2h 22mn
Bit rate mode : Constant
Bit rate : 448 Kbps
Channel count : 6 channels
Channel positions : Front: L C R, Side: L R, LFE
Sampling rate : 48.0 KHz
Bit depth : 16 bits
Compression mode : Lossy
Stream size : 455 MiB (4%)
Title : AC3 5.1 @ 448 kbps - DUB, Blu-ray CEE
Language : Ukrainian
Default : No
Forced : No
Audio #3
ID : 4
Format : DTS
Format/Info : Digital Theater Systems
Mode : 16
Format settings, Endianness : Big
Codec ID : A_DTS
Duration : 2h 22mn
Bit rate mode : Constant
Bit rate : 1 509 Kbps
Channel count : 6 channels
Channel positions : Front: L C R, Side: L R, LFE
Sampling rate : 48.0 KHz
Bit depth : 16 bits
Compression mode : Lossy
Stream size : 1.50 GiB (15%)
Title : DTS 5.1 @ 1536 kbps - AVO, Y.Serbin
Language : Russian
Default : No
Forced : No
Audio #4
ID : 5
Format : DTS
Format/Info : Digital Theater Systems
Mode : 16
Format settings, Endianness : Big
Codec ID : A_DTS
Duration : 2h 22mn
Bit rate mode : Constant
Bit rate : 1 509 Kbps
Channel count : 6 channels
Channel positions : Front: L C R, Side: L R, LFE
Sampling rate : 48.0 KHz
Bit depth : 24 bits
Compression mode : Lossy
Delay relative to video : 11ms
Stream size : 1.50 GiB (15%)
Title : DTS 5.1 @ 1536 kbps
Language : English
Default : No
Forced : No
Text #1
ID : 6
Format : UTF-8
Codec ID : S_TEXT/UTF8
Codec ID/Info : UTF-8 Plain Text
Title : Forced
Language : Russian
Default : Yes
Forced : No
Text #2
ID : 7
Format : UTF-8
Codec ID : S_TEXT/UTF8
Codec ID/Info : UTF-8 Plain Text
Language : Russian
Default : No
Forced : No
Text #3
ID : 8
Format : UTF-8
Codec ID : S_TEXT/UTF8
Codec ID/Info : UTF-8 Plain Text
Title : Forced
Language : Ukrainian
Default : No
Forced : No
Text #4
ID : 9
Format : UTF-8
Codec ID : S_TEXT/UTF8
Codec ID/Info : UTF-8 Plain Text
Language : Ukrainian
Default : No
Forced : No
Text #5
ID : 10
Format : UTF-8
Codec ID : S_TEXT/UTF8
Codec ID/Info : UTF-8 Plain Text
Language : English
Default : No
Forced : No
Text #6
ID : 11
Format : UTF-8
Codec ID : S_TEXT/UTF8
Codec ID/Info : UTF-8 Plain Text
Title : SDH
Language : English
Default : No
Forced : No
Text #7
ID : 12
Format : UTF-8
Codec ID : S_TEXT/UTF8
Codec ID/Info : UTF-8 Plain Text
Title : SDH-COLORED
Language : English
Default : No
Forced : No
Menu
00:00:00.000 : en:00:00:00.000
00:11:04.080 : en:00:11:04.080
00:22:55.833 : en:00:22:55.833
00:34:26.898 : en:00:34:26.898
00:44:48.728 : en:00:44:48.728
00:55:36.333 : en:00:55:36.333
01:06:20.643 : en:01:06:20.643
01:18:27.786 : en:01:18:27.786
01:31:13.927 : en:01:31:13.927
01:44:11.954 : en:01:44:11.954
01:56:35.155 : en:01:56:35.155
02:05:46.122 : en:02:05:46.122
02:09:40.982 : en:02:09:40.982

Скриншоты

Скачать

Скачать торрент!

Как скачивать? · Что такое торрент? · Рейтинг и ограничения

Сайт не распространяет и не хранит электронные версии произведений, а лишь предоставляет доступ к создаваемому пользователями каталогу ссылок на торрент-файлы, которые содержат только списки хеш-сумм

[Профиль] [ЛС]
Показать сообщения:    
Ответить на тему

Текущее время: Сегодня 22:17

Часовой пояс: GMT + 4



Вы не можете начинать темы
Вы не можете отвечать на сообщения
Вы не можете редактировать свои сообщения
Вы не можете удалять свои сообщения
Вы не можете голосовать в опросах
Вы не можете прикреплять файлы к сообщениям
Вы не можете скачивать файлы