Лучшее предложение / The Best Offer / La migliore offerta (Джузеппе Торнаторе / Giuseppe Tornatore) [2013 г., триллер, мелодрама, драма, BDRip 720p] [RUS Transfer] Dub + Original (Eng)

Ответить на тему
 
Автор Сообщение

user ®

Стаж: 7 лет 7 месяцев

Сообщений: 20008

Пост Пост: #1 от 07-Сен-2013 20:45

[Цитировать]

Лучшее предложение / The Best Offer / La migliore offerta Год выпуска: 2013
Страна: Италия
Жанр: триллер, мелодрама, драма
Продолжительность: 02:09:32
Перевод: профессиональный дублированный [лицензия]
Субтитры: русские Режиссер:
  • Джузеппе Торнаторе / Giuseppe Tornatore
В ролях:
  • Джеффри Раш, Джим Стёрджесс, Сильвия Хукс, Дональд Сазерленд, Филип Джексон, Дермот Краули, Кируна Стамелл, Лия Кебеде, Катерина Каподилиста, Ген Сето
Описание:
Вергилий Олдман — управляющий директор ведущего аукционного дома. Время от времени со своим партнёром Билли на глазах у всего мира он проворачивает хитроумные аферы, ловко манипулируя и вводя в заблуждение как продавцов, так и покупателей.

Качество: BDRip 720p
Формат: MKV
Видео кодек: x264
Аудио кодек: DTS
Видео: 1280x536, 24.000 fps, 0.293 bit/pixel, ~ 4 821 Kbps
Аудио: 48.0 KHz, DTS, 5.1 ch (L,C,R,l,r) + LFE, 1536 kbps |Дубляж, Blu-ray RUS|
Аудио: 48.0 KHz, DTS, 5.1 ch (L,C,R,l,r) + LFE, 1536 kbps |Оригинал|
-

MediaInfo

Код:
General
Unique ID : 172257147022371416171737554365920235974 (0x8197850EE4CA229DA5BEA03D5602D1C6)
Complete name : D:\Фильмы\La_migliore_offerta.mkv
Format : Matroska
Format version : Version 4 / Version 2
File size : 7.24 GiB
Duration : 2h 9mn
Overall bit rate : 7 998 Kbps
Movie name : HDCLUB
Encoded date : UTC 2013-09-07 14:44:02
Writing application : mkvmerge v6.3.0 ('You can't stop me!') built on Jun 28 2013 20:09:41
Writing library : libebml v1.3.0 + libmatroska v1.4.0
Video
ID : 1
Format : AVC
Format/Info : Advanced Video Codec
Format profile : High@L4.1
Format settings, CABAC : Yes
Format settings, ReFrames : 12 frames
Codec ID : V_MPEG4/ISO/AVC
Duration : 2h 9mn
Bit rate : 4 821 Kbps
Width : 1 280 pixels
Height : 536 pixels
Display aspect ratio : 2.40:1
Frame rate mode : Constant
Frame rate : 24.000 fps
Color space : YUV
Chroma subsampling : 4:2:0
Bit depth : 8 bits
Scan type : Progressive
Bits/(Pixel*Frame) : 0.293
Stream size : 4.36 GiB (60%)
Title : Лучшее предложение | The Best Offer | La migliore offerta
Writing library : x264 core 138 r2359+704+48 3f879a0 tMod [8-bit@all X86_64]
Encoding settings : cabac=1 / ref=12 / deblock=1:-3:-3 / analyse=0x3:0x133 / me=umh / subme=11 / psy=1 / fade_compensate=0.00 / psy_rd=1.00:0.00 / mixed_ref=1 / me_range=32 / chroma_me=1 / trellis=2 / 8x8dct=1 / cqm=0 / deadzone=21,11 / fast_pskip=0 / chroma_qp_offset=-2 / threads=12 / lookahead_threads=2 / sliced_threads=0 / nr=0 / decimate=1 / interlaced=0 / bluray_compat=0 / constrained_intra=0 / fgo=0 / bframes=8 / b_pyramid=2 / b_adapt=2 / b_bias=0 / direct=1 / weightb=1 / open_gop=0 / weightp=2 / keyint=240 / keyint_min=24 / scenecut=40 / intra_refresh=0 / rc_lookahead=60 / rc=crf / mbtree=0 / crf=14.5000 / qcomp=0.60 / qpmin=0:0:0 / qpmax=69:69:69 / qpstep=4 / vbv_maxrate=50000 / vbv_bufsize=62500 / crf_max=0.0 / nal_hrd=none / ip_ratio=1.30 / pb_ratio=1.25 / aq=1:0.80 / aq-sensitivity=10.00 / aq-factor=1.00:1.00:1.00 / aq2=0 / aq3=0
Language : English
Default : Yes
Forced : No
Audio #1
ID : 2
Format : DTS
Format/Info : Digital Theater Systems
Mode : 16
Format settings, Endianness : Big
Codec ID : A_DTS
Duration : 2h 9mn
Bit rate mode : Constant
Bit rate : 1 509 Kbps
Channel count : 6 channels
Channel positions : Front: L C R, Side: L R, LFE
Sampling rate : 48.0 KHz
Bit depth : 24 bits
Compression mode : Lossy
Stream size : 1.37 GiB (19%)
Title : Дубляж
Language : Russian
Default : Yes
Forced : No
Audio #2
ID : 3
Format : DTS
Format/Info : Digital Theater Systems
Mode : 16
Format settings, Endianness : Big
Codec ID : A_DTS
Duration : 2h 9mn
Bit rate mode : Constant
Bit rate : 1 509 Kbps
Channel count : 6 channels
Channel positions : Front: L C R, Side: L R, LFE
Sampling rate : 48.0 KHz
Bit depth : 24 bits
Compression mode : Lossy
Stream size : 1.37 GiB (19%)
Title : Оригинал
Language : English
Default : No
Forced : No
Text
ID : 4
Format : UTF-8
Codec ID : S_TEXT/UTF8
Codec ID/Info : UTF-8 Plain Text
Language : Russian
Default : No
Forced : No
Menu
00:00:00.000 : ru:Chapter 1
00:00:25.750 : ru:Chapter 2
00:09:46.208 : ru:Chapter 3
00:20:07.250 : ru:Chapter 4
00:38:36.458 : ru:Chapter 5
00:51:22.541 : ru:Chapter 6
01:16:23.583 : ru:Chapter 7
01:34:46.583 : ru:Chapter 8
01:53:21.666 : ru:Chapter 9

Скриншоты

Скачать

Скачать торрент!

Как скачивать? · Что такое торрент? · Рейтинг и ограничения

Сайт не распространяет и не хранит электронные версии произведений, а лишь предоставляет доступ к создаваемому пользователями каталогу ссылок на торрент-файлы, которые содержат только списки хеш-сумм

[Профиль] [ЛС]
Показать сообщения:    
Ответить на тему

Текущее время: Сегодня 16:09

Часовой пояс: GMT + 4



Вы не можете начинать темы
Вы не можете отвечать на сообщения
Вы не можете редактировать свои сообщения
Вы не можете удалять свои сообщения
Вы не можете голосовать в опросах
Вы не можете прикреплять файлы к сообщениям
Вы не можете скачивать файлы