Тревожный вызов / The Call (Брэд Андерсон / Brad Anderson) [2013, США, триллер, криминал, BDRip 720p] [POL transfer] Dub + Original (Eng) + Subs (Rus, Eng)

Ответить на тему
 
Автор Сообщение

user ®

Стаж: 7 лет 7 месяцев

Сообщений: 20008

Пост Пост: #1 от 07-Сен-2013 20:45

[Цитировать]

Тревожный вызов / The Call
Страна: США
Студия: Apotheosis Media Group, Emergency Films, Troika Pictures
Жанр: триллер, криминал
Год выпуска: 2013
Продолжительность: 01:33:53
Перевод: профессиональный (дублированный) [R5]
Оригинальная аудиодорожка: английская
Cубтитры: русские (Voronine), английские (Full, SDH, SDH Colored)
Режиссер: Брэд Андерсон / Brad Anderson
В ролях: Холли Берри, Абигайль Бреслин, Моррис Честнат, Майкл Империоли, Рома Маффия, Майкл Экланд, Эви Томпсон, Стивен Уильямс, Джустина Мачадо, Хосе Зунига, Тара Платт, Дженна Ламия, Ракефет Абергел, Майкл Линстрот
Описание: История про оператора колл-центра 911, куда поступает звонок от девочки-подростка, ставшей жертвой маньяка. Героине предстоит столкнуться со своими кошмарами, чтобы спасти девушку...

Релиз: fanatus
Качество видео: BDRip 720p
Исходник: BDRemux 1080p [POL Transfer]
Контейнер: MKV
Видео: MPEG-4 AVC, 8000 kbps , 1280x720 (16:9), 23.976 fps, 0.369 bit/pixel
Аудио 1: русский (AC3, 6 ch, 48 kHz, 448 kbps)
Аудио 2: английский (AC3, 6 ch, 48 kHz, 640 kbps)
Формат субтитров: softsub (SRT)
Главы: есть

MediaInfo

General
Unique ID : 172861513551798831348361518936725159882 (0x820BEAA0EEFC73B1ADFD72B366647FCA)
Complete name : E:\The.Call.2013.x264.BDRip.720p.fanatus.mkv
Format : Matroska
Format version : Version 2
File size : 5.95 GiB
Duration : 1h 34mn
Overall bit rate : 9 055 Kbps
Movie name : The Call (2013) - fanatus
Encoded date : UTC 2013-09-07 07:25:02
Writing application : mkvmerge v3.4.0 ('Rapunzel') сборка от May 15 2010 09:38:20
Writing library : libebml v0.8.0 + libmatroska v0.9.0
Video
ID : 1
Format : AVC
Format/Info : Advanced Video Codec
Format profile : High@L4.1
Format settings, CABAC : Yes
Format settings, ReFrames : 9 frames
Codec ID : V_MPEG4/ISO/AVC
Duration : 1h 34mn
Bit rate : 8 000 Kbps
Width : 1 280 pixels
Height : 720 pixels
Display aspect ratio : 16:9
Frame rate : 23.976 fps
Color space : YUV
Chroma subsampling : 4:2:0
Bit depth : 8 bits
Scan type : Progressive
Bits/(Pixel*Frame) : 0.362
Stream size : 5.11 GiB (86%)
Title : The Call (2013)
Writing library : x264 core 138 r2358 9e941d1
Encoding settings : cabac=1 / ref=9 / deblock=1:-3:-3 / analyse=0x3:0x113 / me=tesa / subme=11 / psy=1 / psy_rd=1.05:0.00 / mixed_ref=1 / me_range=32 / chroma_me=1 / trellis=2 / 8x8dct=1 / cqm=0 / deadzone=21,11 / fast_pskip=0 / chroma_qp_offset=-2 / threads=16 / lookahead_threads=4 / sliced_threads=0 / nr=0 / decimate=0 / interlaced=0 / bluray_compat=0 / constrained_intra=0 / bframes=10 / b_pyramid=2 / b_adapt=2 / b_bias=0 / direct=3 / weightb=1 / open_gop=0 / weightp=2 / keyint=240 / keyint_min=23 / scenecut=40 / intra_refresh=0 / rc_lookahead=240 / rc=2pass / mbtree=0 / bitrate=8000 / ratetol=1.0 / qcomp=0.65 / qpmin=0 / qpmax=69 / qpstep=4 / cplxblur=20.0 / qblur=0.5 / vbv_maxrate=50000 / vbv_bufsize=62500 / nal_hrd=none / ip_ratio=1.40 / pb_ratio=1.30 / aq=1:0.90
Language : English
Default : Yes
Forced : No
Color primaries : BT.709-5, BT.1361, IEC 61966-2-4, SMPTE RP177
Transfer characteristics : BT.709-5, BT.1361
Matrix coefficients : BT.709-5, BT.1361, IEC 61966-2-4 709, SMPTE RP177
Audio #1
ID : 2
Format : AC-3
Format/Info : Audio Coding 3
Mode extension : CM (complete main)
Format settings, Endianness : Big
Codec ID : A_AC3
Duration : 1h 34mn
Bit rate mode : Constant
Bit rate : 448 Kbps
Channel(s) : 6 channels
Channel positions : Front: L C R, Side: L R, LFE
Sampling rate : 48.0 KHz
Bit depth : 16 bits
Compression mode : Lossy
Stream size : 301 MiB (5%)
Title : Dub
Language : Russian
Default : Yes
Forced : No
Audio #2
ID : 3
Format : AC-3
Format/Info : Audio Coding 3
Mode extension : CM (complete main)
Format settings, Endianness : Big
Codec ID : A_AC3
Duration : 1h 34mn
Bit rate mode : Constant
Bit rate : 640 Kbps
Channel(s) : 6 channels
Channel positions : Front: L C R, Side: L R, LFE
Sampling rate : 48.0 KHz
Bit depth : 16 bits
Compression mode : Lossy
Stream size : 430 MiB (7%)
Title : Original
Language : English
Default : No
Forced : No
Text #1
ID : 4
Format : UTF-8
Codec ID : S_TEXT/UTF8
Codec ID/Info : UTF-8 Plain Text
Title : Voronine
Language : Russian
Default : No
Forced : No
Text #2
ID : 5
Format : UTF-8
Codec ID : S_TEXT/UTF8
Codec ID/Info : UTF-8 Plain Text
Title : Full
Language : English
Default : No
Forced : No
Text #3
ID : 6
Format : UTF-8
Codec ID : S_TEXT/UTF8
Codec ID/Info : UTF-8 Plain Text
Title : SDH
Language : English
Default : No
Forced : No
Text #4
ID : 7
Format : UTF-8
Codec ID : S_TEXT/UTF8
Codec ID/Info : UTF-8 Plain Text
Title : SDH COLORED
Language : English
Default : No
Forced : No
Menu
00:00:00.000 : :Chapter 01
00:08:14.619 : :Chapter 02
00:17:02.521 : :Chapter 03
00:24:00.689 : :Chapter 04
00:31:36.811 : :Chapter 05
00:40:34.223 : :Chapter 06
00:46:39.588 : :Chapter 07
00:54:38.608 : :Chapter 08
01:02:55.229 : :Chapter 09
01:08:47.164 : :Chapter 10
01:16:30.836 : :Chapter 11
01:27:38.670 : :Chapter 12

x264 [info]

---[Information] [06.09.2013 10:47:53] raw [info]: 1280x720p 1:1 @ 24000/1001 fps (cfr)
---[Information] [06.09.2013 10:47:53] x264 [info]: using SAR=1/1
---[Information] [06.09.2013 10:47:53] x264 [info]: using cpu capabilities: MMX2 SSE2Fast LZCNT
---[Information] [06.09.2013 10:47:53] x264 [info]: profile High, level 4.1
---[Information] [07.09.2013 4:37:29] x264 [info]: frame I:954 Avg QP:13.07 size:141010
---[Information] [07.09.2013 4:37:29] x264 [info]: frame P:32025 Avg QP:15.65 size: 74491
---[Information] [07.09.2013 4:37:29] x264 [info]: frame B:102092 Avg QP:17.28 size: 30329
---[Information] [07.09.2013 4:37:29] x264 [info]: consecutive B-frames: 3.7% 4.1% 10.3% 15.4% 20.2% 38.2% 4.8% 0.5% 1.1% 0.9% 0.9%
---[Information] [07.09.2013 4:37:29] x264 [info]: mb I I16..4: 9.7% 76.1% 14.2%
---[Information] [07.09.2013 4:37:29] x264 [info]: mb P I16..4: 1.4% 27.6% 1.3% P16..4: 21.1% 29.2% 13.7% 0.0% 0.0% skip: 5.6%
---[Information] [07.09.2013 4:37:29] x264 [info]: mb B I16..4: 0.2% 2.1% 0.1% B16..8: 35.3% 26.2% 8.1% direct: 8.6% skip:19.5% L0:46.1% L1:45.9% BI: 8.0%
---[Information] [07.09.2013 4:37:29] x264 [info]: 8x8 transform intra:89.5% inter:57.1%
---[Information] [07.09.2013 4:37:29] x264 [info]: direct mvs spatial:97.7% temporal:2.3%
---[Information] [07.09.2013 4:37:29] x264 [info]: coded y,uvDC,uvAC intra: 92.1% 86.1% 72.7% inter: 44.5% 35.0% 14.6%
---[Information] [07.09.2013 4:37:29] x264 [info]: i16 v,h,dc,p: 42% 14% 8% 36%
---[Information] [07.09.2013 4:37:29] x264 [info]: i8 v,h,dc,ddl,ddr,vr,hd,vl,hu: 7% 7% 12% 11% 13% 12% 13% 11% 13%
---[Information] [07.09.2013 4:37:29] x264 [info]: i4 v,h,dc,ddl,ddr,vr,hd,vl,hu: 11% 9% 10% 9% 14% 12% 12% 10% 13%
---[Information] [07.09.2013 4:37:29] x264 [info]: i8c dc,h,v,p: 52% 20% 14% 14%
---[Information] [07.09.2013 4:37:29] x264 [info]: Weighted P-Frames: Y:2.7% UV:1.5%
---[Information] [07.09.2013 4:37:29] x264 [info]: ref P L0: 47.1% 9.0% 18.4% 7.1% 6.0% 4.0% 3.8% 2.0% 2.2% 0.5% 0.0%
---[Information] [07.09.2013 4:37:29] x264 [info]: ref B L0: 70.2% 13.6% 6.5% 3.6% 2.6% 2.1% 1.0% 0.4%
---[Information] [07.09.2013 4:37:29] x264 [info]: ref B L1: 92.9% 7.1%
---[Information] [07.09.2013 4:37:29] x264 [info]: kb/s:7975.68
---[Information] [07.09.2013 4:37:29] encoded 135071 frames, 2.10 fps, 7975.69 kb/s

Скриншот c названием фильма

Скриншоты

Скачать

Скачать торрент!

Как скачивать? · Что такое торрент? · Рейтинг и ограничения

Сайт не распространяет и не хранит электронные версии произведений, а лишь предоставляет доступ к создаваемому пользователями каталогу ссылок на торрент-файлы, которые содержат только списки хеш-сумм

[Профиль] [ЛС]
Показать сообщения:    
Ответить на тему

Текущее время: Сегодня 20:11

Часовой пояс: GMT + 4



Вы не можете начинать темы
Вы не можете отвечать на сообщения
Вы не можете редактировать свои сообщения
Вы не можете удалять свои сообщения
Вы не можете голосовать в опросах
Вы не можете прикреплять файлы к сообщениям
Вы не можете скачивать файлы