Мадхумати / Madhumati (Бимал Рой / Bimal Roy) [1958, Индия, Мелодрама, детектив, мистика, DVDRip] VO (Nastia)

Ответить на тему
 
Автор Сообщение

user ®

Стаж: 12 лет

Сообщений: 15124

Пост Пост: #1 от 07-Сен-2013 17:35

[Цитировать]

Мадхумати / Madhumati
Страна: Индия
Жанр: Мелодрама, детектив, мистика
Год выпуска: 1958
Продолжительность: 02:46:09
Перевод: Одноголосый закадровый Nastia
Cубтитры: русские (на тексты песен)
Оригинальная аудиодорожка: хинди
Режиссер: Бимал Рой / Bimal Roy
В ролях: Дилип Кумар, Виджаянтимала, Джонни Уолкер, Пран, Джаянт, Рамаян Тивари, Мисра, Баидж Шарма, Бхудо Адвани, Джагдиш
Описание: Однажды в дождливую ночь ломается автомобиль Ананда и ему приходиться переночевать в ближайшем особняке. Именно здесь он узнает о своей прошлой жизни, о трагической любви к красавице Мадхумати, о том, как события в его предыдущем рождении повлияли на его сегодняшнюю жизнь…
Доп. информация: Релиз
Перевод: larisa_k (спасибо!)
Озвучка: Nastia (спасибо!)
Релиз и сведение аудио: керелис (спасибо!)
Сэмпл: http://multi-up.com/901116
Качество видео: DVDRip
Формат видео: AVI
Видео: XviD build 43, 576x432 (1.33:1), 29.970 fps, 1036 kbps avg
Аудио: Russian AC3 Dolby Digital, 48 kHz, 2/0 (L,R) ch, 192.00 kbps avg
Аудио 2: Hindi MPEG Layer 3, 48 kHz, 2/0 (L,R), 128.00 kbps avg

MediaInfo

General
Complete name : D:\Madhumati.1958.DVDRip.XviD.BWTorrents\Madhumati.1958.DVDRip.XviD.BWTorrents.avi
Format : AVI
Format/Info : Audio Video Interleave
File size : 1.60 GiB
Duration : 2h 46mn
Overall bit rate : 1 375 Kbps
Writing application : VirtualDubModRus 1.5.10.2 (build 2542/release)
Writing library : VirtualDubMod build 2542/release
Video
ID : 0
Format : MPEG-4 Visual
Format profile : AdvancedSimple@L5
Format settings, BVOP : Yes
Format settings, QPel : No
Format settings, GMC : No warppoints
Format settings, Matrix : Default (MPEG)
Codec ID : XVID
Codec ID/Hint : XviD
Duration : 2h 46mn
Bit rate : 1 037 Kbps
Width : 576 pixels
Height : 432 pixels
Display aspect ratio : 4/3
Frame rate : 29.970 fps
Resolution : 24 bits
Colorimetry : 4:2:0
Scan type : Progressive
Bits/(Pixel*Frame) : 0.139
Stream size : 1.20 GiB (75%)
Writing library : XviD 1.2.0SMP (UTC 2006-01-08)
Audio #1
ID : 1
Format : AC-3
Format/Info : Audio Coding 3
Codec ID : 2000
Duration : 2h 46mn
Bit rate mode : Constant
Bit rate : 192 Kbps
Channel(s) : 2 channels
Channel positions : L R
Sampling rate : 48.0 KHz
Stream size : 228 MiB (14%)
Alignment : Split accross interleaves
Interleave, duration : 33 ms (1.00 video frame)
Interleave, preload duration : 500 ms
Audio #2
ID : 2
Format : MPEG Audio
Format version : Version 1
Format profile : Layer 3
Codec ID : 55
Codec ID/Hint : MP3
Duration : 2h 46mn
Bit rate mode : Constant
Bit rate : 128 Kbps
Channel(s) : 2 channels
Sampling rate : 48.0 KHz
Resolution : 16 bits
Stream size : 152 MiB (9%)
Alignment : Aligned on interleaves
Interleave, duration : 33 ms (1.00 video frame)
Interleave, preload duration : 504 ms
Writing library : LAME3.98a
Encoding settings : -m j -V 4 -q 2 -lowpass 17 -b 128

Скриншоты

Скачать

Скачать торрент! Мадхумати / Madhumati (Бимал Рой / Bimal Roy) [1958, Индия, Мелодрама, детектив, мистика, DVDRip] VO (Nastia)

Как скачивать? · Что такое торрент? · Рейтинг и ограничения

Сайт не распространяет и не хранит электронные версии произведений, а лишь предоставляет доступ к создаваемому пользователями каталогу ссылок на торрент-файлы, которые содержат только списки хеш-сумм

[Профиль] [ЛС]
Показать сообщения:    
Ответить на тему

Текущее время: Сегодня 13:14

Часовой пояс: GMT + 4



Вы не можете начинать темы
Вы не можете отвечать на сообщения
Вы не можете редактировать свои сообщения
Вы не можете удалять свои сообщения
Вы не можете голосовать в опросах
Вы не можете прикреплять файлы к сообщениям
Вы не можете скачивать файлы