Секрет водной техники / Secret Of The Water Technique / Legend of All Men Are Brothers / Shui xu wai zhuan (Тянь Пэн / Tien Peng) [1984, Тайвань, боевые искусства, комедия, VHSRip] VO (Jet)

Ответить на тему
 
Автор Сообщение

user ®

Стаж: 11 лет

Сообщений: 15151

Пост Пост: #1 от 07-Сен-2013 14:25

[Цитировать]

Секрет водной техники / Secret Of The Water Technique / Legend of All Men Are Brothers / Shui xu wai zhuan
Страна: Тайвань
Жанр: боевые искусства, комедия
Год выпуска: 1984
Продолжительность: 01:22:43
Перевод: Одноголосый закадровый Jet
Cубтитры: китайские
Режиссер: Тянь Пэн / Tien Peng
В ролях: Леунг Ка-Ян, Тянь Пэн, Джейсон Пай Пяо, Юань Сэнь, Мяо Тянь, Лу Ди, Лу Илун, Ай Цзыван, Чжан Ди
Описание: Ро Да беглец, за голову которого назначена награда в 1000 лян, попадает в западню полиции, но ему помогает брат по оружию Вэй Лонь и они вместе разбираются с этой преградой. Ро Да подаётся в бега и по пути он встречает своего старого друга, у которого скрывается некоторое время, но в жизни старика тоже не всё так гладко, его тесть Логвань скупой бандит, который не терпит присутствие чужака и предлагает Ро Да податься в монахи, и найти себе там жильё.
Став монахом Ро Да уже по кличке "Сумасшедший монах" спасает военачальника Линя, которого приговорили к 10-ти годам лишения свободы... Спустя некоторое время Линь узнаёт, что его жену убили, и всеми путями пытается расправиться с убийцей. На помощь ему приходит тот самый монах. Им пытаются помешать не просто продажные полицейские во главе с бандитами, но ещё и всякая нечисть... (Rainmaker)
Благодарность: За описание и перевод благодарность выражается Rainmaker, тайминг - Public Enemy (((, озвучивание - Виктор Береговых (Jet).
Сэмпл: http://multi-up.com/901015
Качество видео: VHSRip
Формат видео: AVI
Видео: 640x352 (1.82:1), 23.976 fps, XviD build 50 ~2227 kbps avg, 0.41 bit/pixel
Аудио: 48 kHz, MPEG Layer 3, 2 ch, ~128.00 kbps avg
Формат субтитров: hardsub (неотключаемые)

MediaInfo

Format : AVI
Format/Info : Audio Video Interleave
File size : 1,37 Гбайт
Duration : 1 ч. 22 м.
Overall bit rate : 2365 Кбит/сек
Writing application : VirtualDubMod 1.5.10.3 | www.virtualdub-fr.org || (build 2550/release)
Writing library : VirtualDubMod build 2550/release
Видео
ID : 0
Format : MPEG-4 Visual
Format profile : Advanced Simple@L5
Format settings, BVOP : 2
Format settings, QPel : Нет
Format settings, GMC : Без точки перехода
Format settings, Matrix : Default (MPEG)
Codec ID : XVID
Codec ID/Hint : XviD
Duration : 1 ч. 22 м.
Bit rate : 2228 Кбит/сек
Width : 640 пикселей
Height : 352 пикселя
Display aspect ratio : 16:9
Frame rate : 23,976 кадра/сек
Color space : YUV
Chroma subsampling : 4:2:0
Bit depth : 8 бит
Scan type : Прогрессивная
Compression mode : С потерями
Bits/(Pixel*Frame) : 0.412
Stream size : 1,29 Гбайт (94%)
Writing library : XviD 1.2.1 (UTC 2008-12-04)
Аудио
ID : 1
Format : MPEG Audio
Format version : Version 1
Format profile : Layer 3
Codec ID : 55
Codec ID/Hint : MP3
Duration : 1 ч. 22 м.
Bit rate mode : Постоянный
Bit rate : 128 Кбит/сек
Channel(s) : 2 канала
Sampling rate : 48,0 КГц
Compression mode : С потерями
Stream size : 75,7 Мбайт (5%)
Alignment : Соединение по промежуткам
Interleave, duration : 42 мс. (1,00 видеокадр)
Interleave, preload duration : 504 мс.
Writing library : LAME3.99r
Encoding settings : -m s -V 4 -q 2 -lowpass 17 -b 128

Скриншот c названием фильма

Скриншоты

Скачать

Скачать торрент! Секрет водной техники / Secret Of The Water Technique / Legend of All Men Are Brothers / Shui xu wai zhuan (Тянь Пэн / Tien Peng) [1984, Тайвань, боевые искусства, комедия, VHSRip] VO (Jet)

Как скачивать? · Что такое торрент? · Рейтинг и ограничения

Сайт не распространяет и не хранит электронные версии произведений, а лишь предоставляет доступ к создаваемому пользователями каталогу ссылок на торрент-файлы, которые содержат только списки хеш-сумм

[Профиль] [ЛС]
Показать сообщения:    
Ответить на тему

Текущее время: Сегодня 11:30

Часовой пояс: GMT + 4



Вы не можете начинать темы
Вы не можете отвечать на сообщения
Вы не можете редактировать свои сообщения
Вы не можете удалять свои сообщения
Вы не можете голосовать в опросах
Вы не можете прикреплять файлы к сообщениям
Вы не можете скачивать файлы