К чуду / К удивлению / To the Wonder (Терренс Малик / Terrence Malick) [2012, США, драма, мелодрама, BDRip 1080p] VO (Kerob) + DVO (Сладкая парочка) + Sub Rus + Original Eng

Ответить на тему
 
Автор Сообщение

user ®

Стаж: 7 лет 7 месяцев

Сообщений: 20008

Пост Пост: #1 от 07-Сен-2013 14:25

[Цитировать]

-К чуду / К удивлению / To the Wonder-Страна: США
Жанр: драма, мелодрама
Год выпуска: 2012
Продолжительность: 01:52:34-Перевод: Одноголосый закадровый Kerob
Перевод 2: Любительский (двухголосый закадровый) Сладкая парочка
Cубтитры: русские, английские
Оригинальная аудиодорожка: английский-Режиссер: Терренс Малик / Terrence Malick
В ролях: Бен Аффлек, Ольга Куриленко, Рэйчел МакАдамс, Хавьер Бардем, Татьяна Чилин, Ромина Монделло, Тони О’Ганс, Чарльз Бэйкер, Маршалл Белл, Кэйси Уильямс, Джек Хайнс, Пэрис Олвэйс-Описание: После посещения Мон-Сент-Мишеля Марина и Нил возвращаются в Оклахому, где начинаются проблемы. Нил заводит роман с Джейн, а Марина изменяет мужу с Чарли. Оба - и Нил, и Марина - просят наставлений у отца Куинтаны, священника, который сам страдает от невозможности жить собственной жизнью из-за постоянного погружения в жизни своих прихожан...-Сэмпл: http://yadi.sk/d/rNOJmF228qj8J-Тип релиза: BDRip 1080p
Контейнер: MKV
Видео: MPEG-4 AVC Video 14.3 Mbps 1920x816p / 23,976 fps / High Profile 4.1
Аудио: Dolby Digital Audio Russian 5.1 / 48 kHz / 384 kbps | Kerob
Аудио 2: Dolby Digital Audio Russian 5.1 / 48 kHz / 384 kbps | Сладкая парочка
Аудио 3: DTS Audio English 5.1 / 48 kHz / 768 kbps / 24-bit
Формат субтитров: softsub (SRT)

Видеоряд от EbP

Quote
RELEASE NAME..: To.the.Wonder.2012.1080p.BluRay.DD5.1.x264-EbPRELEASE DATE..: 07/04/2013RELEASE SIZE..: 11.9 GBRUNTIME.......: 1:52:34VIDEO CODEC...: x264, 2-pass, L4.1FRAMERATE.....: 23.976 fpsBITRATE.......: 14.3 MbpsRESOLUTION....: 1920x816AUDIO ........: English DD5.1 @ 640 kb/s (sfse)SUBTITLES.....: English .srt, English (hardcoded for non-English parts)CHAPTER.......: IncludedSOURCE........: To the Wonder 2012 1080p Blu-ray AVC DTS-HD MA 7.1-LAZERS
Source (left) | EbP (right)


MI

General
Complete name                    : X:\  -= Фильмы =-\К чуду (2012. To the Wonder).mkv
Format                           : Matroska
File size                        : 12.7 GiB
Duration                         : 1h 52mn
Overall bit rate                 : 16.1 Mbps
Movie name                       : Release for RuTracker
Encoded date                     : UTC 2013-09-06 19:46:04
Writing application              : mkvmerge v4.9.1 ('Ich will') сборка от Jul 11 2011 23:53:15
Writing library                  : libebml v1.2.1 + libmatroska v1.1.1
Video
ID                               : 1
Format                           : AVC
Format/Info                      : Advanced Video Codec
Format profile                   : High@L4.1
Format settings, CABAC           : Yes
Format settings, ReFrames        : 5 frames
Muxing mode                      : Container profile=Unknown@4.1
Codec ID                         : V_MPEG4/ISO/AVC
Duration                         : 1h 52mn
Bit rate                         : 14.3 Mbps
Width                            : 1 920 pixels
Height                           : 816 pixels
Display aspect ratio             : 2.35:1
Frame rate                       : 23.976 fps
Color space                      : YUV
Chroma subsampling               : 4:2:0
Bit depth                        : 8 bits
Scan type                        : Progressive
Bits/(Pixel*Frame)               : 0.379
Stream size                      : 11.2 GiB (89%)
Title                            : To.the.Wonder.2012.1080p.BluRay.DD5.1.x264-EbP
Writing library                  : x264 core 130 r2273 b3065e6
Encoding settings                : cabac=1 / ref=5 / deblock=1:-3:-3 / analyse=0x3:0x113 / me=tesa / subme=10 / psy=1 / psy_rd=1.00:0.00 / mixed_ref=1 / me_range=16 / chroma_me=1 / trellis=2 / 8x8dct=1 / cqm=0 / deadzone=21,11 / fast_pskip=0 / chroma_qp_offset=-2 / threads=18 / lookahead_threads=4 / sliced_threads=0 / nr=0 / decimate=0 / interlaced=0 / bluray_compat=0 / constrained_intra=0 / bframes=10 / b_pyramid=2 / b_adapt=2 / b_bias=0 / direct=3 / weightb=1 / open_gop=0 / weightp=2 / keyint=250 / keyint_min=23 / scenecut=40 / intra_refresh=0 / rc=crf / mbtree=0 / crf=17.8 / qcomp=0.70 / qpmin=0 / qpmax=69 / qpstep=4 / ip_ratio=1.30 / pb_ratio=1.30 / aq=1:0.80 / zones=155981,161953,crf=30
Language                         : English
Audio #1
ID                               : 2
Format                           : AC-3
Format/Info                      : Audio Coding 3
Mode extension                   : CM (complete main)
Codec ID                         : A_AC3
Duration                         : 1h 52mn
Bit rate mode                    : Constant
Bit rate                         : 384 Kbps
Channel(s)                       : 6 channels
Channel positions                : Front: L C R, Side: L R, LFE
Sampling rate                    : 48.0 KHz
Bit depth                        : 16 bits
Stream size                      : 309 MiB (2%)
Language                         : Russian
Audio #2
ID                               : 3
Format                           : AC-3
Format/Info                      : Audio Coding 3
Mode extension                   : CM (complete main)
Codec ID                         : A_AC3
Duration                         : 1h 52mn
Bit rate mode                    : Constant
Bit rate                         : 384 Kbps
Channel(s)                       : 6 channels
Channel positions                : Front: L C R, Side: L R, LFE
Sampling rate                    : 48.0 KHz
Bit depth                        : 16 bits
Stream size                      : 309 MiB (2%)
Title                            : DVO [Сладкая парочка]
Language                         : Russian
Audio #3
ID                               : 4
Format                           : DTS
Format/Info                      : Digital Theater Systems
Codec ID                         : A_DTS
Duration                         : 1h 52mn
Bit rate mode                    : Constant
Bit rate                         : 755 Kbps
Channel(s)                       : 6 channels
Channel positions                : Front: L C R, Side: L R, LFE
Sampling rate                    : 48.0 KHz
Bit depth                        : 24 bits
Stream size                      : 608 MiB (5%)
Language                         : English
Text #1
ID                               : 5
Format                           : UTF-8
Codec ID                         : S_TEXT/UTF8
Codec ID/Info                    : UTF-8 Plain Text
Title                            : jerichOne
Language                         : Russian
Text #2
ID                               : 6
Format                           : UTF-8
Codec ID                         : S_TEXT/UTF8
Codec ID/Info                    : UTF-8 Plain Text
Language                         : English
Menu
00:00:00.000                     : en:Love Makes Us One
00:10:06.523                     : en:America
00:18:51.047                     : en:There's Something Missing
00:31:12.370                     : en:Face the Facts
00:41:33.866                     : en:Read Romans
00:49:52.114                     : en:Paris Is Dreadful
00:57:33.784                     : en:Invisible Something
01:09:01.888                     : en:Leave This Place
01:17:32.064                     : en:Two Women Inside Me
01:27:44.426                     : en:Intersection
01:35:02.530                     : en:Where Are You Leading Me?
01:44:31.223                     : en:To the Wonder

Скриншоты


  • Присутствует хардсаб на не английскую речь
  • После выхода лицензионной озвучки раздача будет обновлена.
Скачать

Скачать торрент!

Как скачивать? · Что такое торрент? · Рейтинг и ограничения

Сайт не распространяет и не хранит электронные версии произведений, а лишь предоставляет доступ к создаваемому пользователями каталогу ссылок на торрент-файлы, которые содержат только списки хеш-сумм

[Профиль] [ЛС]
Показать сообщения:    
Ответить на тему

Текущее время: Сегодня 18:35

Часовой пояс: GMT + 4



Вы не можете начинать темы
Вы не можете отвечать на сообщения
Вы не можете редактировать свои сообщения
Вы не можете удалять свои сообщения
Вы не можете голосовать в опросах
Вы не можете прикреплять файлы к сообщениям
Вы не можете скачивать файлы