Гигантский механический человек / The Giant Mechanical Man (Ли Кирк / Lee Kirk) [2012, США, драма, мелодрама, комедия, BDRip 720p] VO (MrRose / Lenok92)

Ответить на тему
 
Автор Сообщение

user ®

Стаж: 7 лет 7 месяцев

Сообщений: 20008

Пост Пост: #1 от 07-Сен-2013 14:25

[Цитировать]

Гигантский механический человек / The Giant Mechanical Man
Страна: США / Votiv Films, ITS Capital, Taggart Productions
Жанр: драма, мелодрама, комедия
Год выпуска: 2012
Продолжительность: 01:29:10-Перевод: Одноголосый закадровый (Алексей Наследников / MrRose по переводу Lenok92)
Cубтитры: нет
Оригинальная аудиодорожка: английский-Режиссер: Ли Кирк / Lee Kirk-В ролях: Дженна Фишер, Крис Мессина, Малин Акерман, Рич Соммер, Люси Панч, Тофер Грейс, Боб Оденкирк, Трэвис Шульдт, Валентайн Миле, Шон Ганн-Описание:
Это фильм про двух изгоев. Один — недооцененный уличный артист, выступающий в жанре человека-статуи. Вторая — так и не нашедшая себя в жизни девушка, младшая сестра которой навязчиво пытается устроить её личную жизнь. Им нужны деньги и случайным образом они устраиваются на работу в один зоопарк…
-Доп. информация:
Озвучка доступна благодаря будулайроманов. Сборка звука - perevodman.- -Качество видео: BDRip
Видео: x264 / 1 280x688 / 5 493 Kbps / 24 fps / 0.260 bit/pixel
Аудио 1: DTS / 48 KHz / 1 509 Kbps / 6 ch | VO MrRose | Перевод Lenok92-

MediaInfo

General
Unique ID                                : 203570815494146961232728799850071498758 (0x9926501C98BFDC4EA1DDB5F5DB1EA006)
Complete name                            : The.Giant.Mechanical.Man.720p.MrRose.mkv
Format                                   : Matroska
Format version                           : Version 4 / Version 2
File size                                : 4.37 GiB
Duration                                 : 1h 29mn
Overall bit rate                         : 6 982 Kbps
Movie name                               : релиз Переулка Переводмана
Encoded date                             : UTC 2013-09-06 15:45:46
Writing application                      : mkvmerge v6.0.0 ('Coming Up For Air') built on Jan 20 2013 09:52:00
Writing library                          : libebml v1.3.0 + libmatroska v1.4.0
Video
ID                                       : 1
Format                                   : AVC
Format/Info                              : Advanced Video Codec
Format profile                           : High@L4.1
Format settings, CABAC                   : Yes
Format settings, ReFrames                : 5 frames
Codec ID                                 : V_MPEG4/ISO/AVC
Duration                                 : 1h 29mn
Bit rate                                 : 5 493 Kbps
Width                                    : 1 280 pixels
Height                                   : 688 pixels
Display aspect ratio                     : 1.85:1
Frame rate mode                          : Constant
Frame rate                               : 24.000 fps
Color space                              : YUV
Chroma subsampling                       : 4:2:0
Bit depth                                : 8 bits
Scan type                                : Progressive
Bits/(Pixel*Frame)                       : 0.260
Stream size                              : 3.34 GiB (76%)
Writing library                          : x264 core 129 r2230 1cffe9f
Encoding settings                        : cabac=1 / ref=5 / deblock=1:0:0 / analyse=0x3:0x133 / me=umh / subme=7 / psy=1 / psy_rd=1.00:0.00 / mixed_ref=1 / me_range=16 / chroma_me=1 / trellis=1 / 8x8dct=1 / cqm=0 / deadzone=21,11 / fast_pskip=0 / chroma_qp_offset=-2 / threads=12 / lookahead_threads=2 / sliced_threads=0 / nr=0 / decimate=1 / interlaced=0 / bluray_compat=0 / constrained_intra=0 / bframes=3 / b_pyramid=2 / b_adapt=2 / b_bias=0 / direct=3 / weightb=1 / open_gop=0 / weightp=2 / keyint=250 / keyint_min=24 / scenecut=40 / intra_refresh=0 / rc_lookahead=50 / rc=2pass / mbtree=1 / bitrate=5493 / ratetol=1.0 / qcomp=0.60 / qpmin=0 / qpmax=69 / qpstep=4 / cplxblur=20.0 / qblur=0.5 / ip_ratio=1.40 / aq=1:1.00
Language                                 : English
Default                                  : Yes
Forced                                   : No
Audio
ID                                       : 2
Format                                   : DTS
Format/Info                              : Digital Theater Systems
Mode                                     : 16
Format settings, Endianness              : Big
Codec ID                                 : A_DTS
Duration                                 : 1h 29mn
Bit rate mode                            : Constant
Bit rate                                 : 1 509 Kbps
Channel(s)                               : 6 channels
Channel positions                        : Front: L C R, Side: L R, LFE
Sampling rate                            : 48.0 KHz
Bit depth                                : 24 bits
Compression mode                         : Lossy
Stream size                              : 966 MiB (22%)
Title                                    : Озвучка MrRose
Language                                 : Russian
Default                                  : Yes
Forced                                   : No

Скриншоты

Скачать

Скачать торрент!

Как скачивать? · Что такое торрент? · Рейтинг и ограничения

Сайт не распространяет и не хранит электронные версии произведений, а лишь предоставляет доступ к создаваемому пользователями каталогу ссылок на торрент-файлы, которые содержат только списки хеш-сумм

[Профиль] [ЛС]
Показать сообщения:    
Ответить на тему

Текущее время: Сегодня 10:03

Часовой пояс: GMT + 4



Вы не можете начинать темы
Вы не можете отвечать на сообщения
Вы не можете редактировать свои сообщения
Вы не можете удалять свои сообщения
Вы не можете голосовать в опросах
Вы не можете прикреплять файлы к сообщениям
Вы не можете скачивать файлы