Прямая линия (Юрий Швырев) [1967, Психологическая драма, DVDRip]

Ответить на тему
 
Автор Сообщение

user ®

Стаж: 7 лет 7 месяцев

Сообщений: 20008

Пост Пост: #1 от 07-Сен-2013 14:25

[Цитировать]

Прямая линия
Жанр: Психологическая драма
Год выпуска: 1967
Продолжительность: 01:27:01
Режиссёр: Юрий Швырев
В ролях: Сергей Гололобов, Родион Нахапетов, Людмила Долгорукова, Олег Ефремов, Вадим Захарченко, Елена Измайлова, Геннадий Корольков, Евгений Лебедев, Эльза Леждей, Лаврентий Масоха, Алексей Миронов, Софья Пилявская, Юрий Пузырев, Любовь Соколова, Николай Тимофеев, Борис Юрченко
Описание: Молодой московский физик Белов работает в области атомных испытаний в секретном НИИ. После успешной сдачи проекта, в котором он принимал самое активное участие, на полигоне погибают два солдата. Белова, тяжело переживающего случившееся, посылают на полигон, чтобы разобраться в причине аварии.
Доп. информация: Сценарий Владимир Маканин.
Картина вышла в ограниченном прокате в 1971 году.
Сэмпл: http://sendfile.su/863671
Качество видео: DVDRip
Формат видео: AVI
Видео: Xvid, 640x256, 25fps, 1059Kbps
Аудио: MPEG Audio Layer 3, 48000Hz, stereo, 128kbps

MediaInfo

General
Complete name : Z:\Наше кино\Рипы_745\Прямая линия 1967_Эталлн67.avi
Format : AVI
Format/Info : Audio Video Interleave
File size : 745 MiB
Duration : 1h 27mn
Overall bit rate : 1 197 Kbps
Writing application : VirtualDubMod 1.5.10.3 | www.virtualdub-fr.org || (build 2550/release)
Writing library : VirtualDubMod build 2550/release
Video
ID : 0
Format : MPEG-4 Visual
Format profile : Advanced Simple@L5
Format settings, BVOP : 1
Format settings, QPel : No
Format settings, GMC : No warppoints
Format settings, Matrix : Default (H.263)
Codec ID : XVID
Codec ID/Hint : XviD
Duration : 1h 27mn
Bit rate : 1 059 Kbps
Width : 640 pixels
Height : 256 pixels
Display aspect ratio : 2.500
Frame rate : 25.000 fps
Color space : YUV
Chroma subsampling : 4:2:0
Bit depth : 8 bits
Scan type : Progressive
Compression mode : Lossy
Bits/(Pixel*Frame) : 0.259
Stream size : 659 MiB (88%)
Writing library : XviD 1.2.1 (UTC 2008-12-04)
Audio
ID : 1
Format : MPEG Audio
Format version : Version 1
Format profile : Layer 3
Codec ID : 55
Codec ID/Hint : MP3
Duration : 1h 27mn
Bit rate mode : Constant
Bit rate : 128 Kbps
Channel(s) : 2 channels
Sampling rate : 48.0 KHz
Compression mode : Lossy
Stream size : 79.7 MiB (11%)
Alignment : Aligned on interleaves
Interleave, duration : 40 ms (1.00 video frame)
Interleave, preload duration : 504 ms

Скриншот c названием фильма

Скриншоты

Скачать

Скачать торрент!

Как скачивать? · Что такое торрент? · Рейтинг и ограничения

Сайт не распространяет и не хранит электронные версии произведений, а лишь предоставляет доступ к создаваемому пользователями каталогу ссылок на торрент-файлы, которые содержат только списки хеш-сумм

[Профиль] [ЛС]
Показать сообщения:    
Ответить на тему

Текущее время: Сегодня 07:49

Часовой пояс: GMT + 4



Вы не можете начинать темы
Вы не можете отвечать на сообщения
Вы не можете редактировать свои сообщения
Вы не можете удалять свои сообщения
Вы не можете голосовать в опросах
Вы не можете прикреплять файлы к сообщениям
Вы не можете скачивать файлы